1. Longevity:
    5 years 2 months
    Posts:
    1681
    Gender:
    Male
    Фильм «Будущее начинается» Фильм- Информация
    Название: Звездный путь
    Оригинальное название: Star Trek
    Год выхода: 2009
    Жанр: фантастика, боевик, приключения
    Режиссер: Джей Джей Абрамс
    Сценарий: Роберто Орси, Алекс Куртцман, Джин Родденберри
    Продюсер: Джей Джей Абрамс, Дэймон Линделоф, Дэвид Бэроннэф
    В ролях: Крис Пайн,Закари Куинто,Зои Салдана,Карл Урбан,Эрик Бана,Антон Ельчин,Саймон Пегг,Джон Чо,Леонард Нимой,Брюс Гринвуд

    Сюжет:
    Когда Нерон с планеты Ромул приходит из будущего, чтобы отомстить Федерации, конкуренты Кирк и Спок должны объединиться, чтобы не дать ему разрушить все, что им дорого. Во время этого будоражащего путешествия, наполненного эффектными боями, юмором и космическими угрозами, новоиспеченные члены команды военного корабля «Энтерпрайз» смело встретятся лицом к лицу с невообразимыми опасностями.-- Страна: Германия, США
    Продолжительность: 02:06:50

    Файл
    Кодек: MPEG4/ISO/AVC H.264
    Формат: MKV
    Качество: BDRip 1080p | 60 fps
    Видео: 1920 x 800 (2.400) | 60.119 fps | 20,0 Мбит/сек
    Аудио 1: AC-3 | 5.1 | 48 kHz | 640 Кбит/сек | 16 bit | Дубляж |
    Аудио 2: DTS | 5.1 | 48 kHz | 1510 Кбит/сек | 16 bit | Оригинал |
    Аудио 3: Vorbis | 2.0 | 48 kHz | 80 Кбит/сек | 16 bit | Оригинал |
    Субтитры: Russian,English,Dutch,Finnish,French,German,Norwegian,Spanish,Swedish

    MedifInfo

    Видео
    Идентификатор : 1
    Формат : AVC
    Формат/Информация : Advanced Video Codec
    Профиль формата : [email protected]
    Параметр CABAC формата : Да
    Параметр ReFrames формата : 6 кадров
    Идентификатор кодека : V_MPEG4/ISO/AVC
    Продолжительность : 2 ч. 6 м.
    Битрейт : 20,0 Мбит/сек
    Ширина : 1920 пикселей
    Высота : 800 пикселей
    Соотношение сторон : 2,40:1
    Режим частоты кадров : Постоянный
    Частота кадров : 60,119 кадров/сек
    Цветовое пространство : YUV
    Субдискретизация насыщенности : 4:2:0
    Битовая глубина : 8 бит
    Тип развёртки : Прогрессивная
    Бит/(Пиксели*Кадры) : 0.217
    Размер потока : 17,3 Гбайт (88%)
    Библиотека кодирования : x264 core 120
    Настройки программы : cabac=1 / ref=6 / deblock=1:0:0 / analyse=0x3:0x113 / me=esa / subme=7 / psy=1 / psy_rd=1.00:0.00 / mixed_ref=1 / me_range=32 / chroma_me=1 / trellis=1 / 8x8dct=1 / cqm=0 / deadzone=21,11 / fast_pskip=1 / chroma_qp_offset=-2 / threads=3 / sliced_threads=0 / nr=0 / decimate=1 / interlaced=0 / bluray_compat=0 / constrained_intra=0 / bframes=3 / b_pyramid=2 / b_adapt=2 / b_bias=0 / direct=1 / weightb=1 / open_gop=0 / weightp=2 / keyint=600 / keyint_min=60 / scenecut=40 / intra_refresh=0 / rc_lookahead=50 / rc=2pass / mbtree=1 / bitrate=20000 / ratetol=1.0 / qcomp=0.60 / qpmin=3 / qpmax=69 / qpstep=4 / cplxblur=20.0 / qblur=0.5 / ip_ratio=1.40 / aq=1:1.00
    Default : Да
    Forced : Нет
    Аудио #1
    Идентификатор : 2
    Формат : AC-3
    Формат/Информация : Audio Coding 3
    Расширение режима : CM (complete main)
    Параметр Endianness формата : Big
    Режим смешивания : Header stripping
    Идентификатор кодека : A_AC3
    Продолжительность : 2 ч. 6 м.
    Вид битрейта : Постоянный
    Битрейт : 640 Кбит/сек
    Каналы : 6 каналов
    Расположение каналов : Front: L C R, Side: L R, LFE
    Частота : 48,0 КГц
    Частота кадров : 31,250 кадров/сек (1536 spf)
    Битовая глубина : 16 бит
    Метод сжатия : С потерями
    Размер потока : 581 Мбайт (3%)
    Заголовок : AC3 5.1 640 kbps
    Язык : Russian
    Default : Да
    Forced : Нет
    Аудио #2
    Идентификатор : 3
    Формат : DTS
    Формат/Информация : Digital Theater Systems
    Режим : 16
    Параметр Endianness формата : Big
    Идентификатор кодека : A_DTS
    Продолжительность : 2 ч. 6 м.
    Вид битрейта : Постоянный
    Битрейт : 1510 Кбит/сек
    Каналы : 6 каналов
    Расположение каналов : Front: L C R, Side: L R, LFE
    Частота : 48,0 КГц
    Частота кадров : 93,750 кадра/сек (512 spf)
    Битовая глубина : 24 бит
    Метод сжатия : С потерями
    Размер потока : 1,34 Гбайт (7%)
    Заголовок : DTS 5.1 1536 kbps
    Язык : English
    Default : Нет
    Forced : Нет
    Аудио #3
    Идентификатор : 4
    Формат : Vorbis
    Параметр Floor формата : 1
    Идентификатор кодека : A_VORBIS
    Продолжительность : 2 ч. 6 м.
    Вид битрейта : Переменный
    Битрейт : 80,0 Кбит/сек
    Каналы : 2 канала
    Частота : 48,0 КГц
    Метод сжатия : С потерями
    Размер потока : 72,6 Мбайт (0%)
    Заголовок : Commentary Vorbis 2.0 @ 80 Kbps
    Библиотека кодирования : libVorbis 1.2 (UTC 2007-06-22)
    Язык : English
    Default : Нет
    Forced : Нет
    Текст #1
    Идентификатор : 5
    Формат : UTF-8
    Режим смешивания : zlib
    Идентификатор кодека : S_TEXT/UTF8
    Идентификатор кодека/Информация : UTF-8 Plain Text
    Заголовок : Russian Full
    Язык : Russian
    Default : Нет
    Forced : Нет
    Текст #2
    Идентификатор : 6
    Формат : UTF-8
    Режим смешивания : zlib
    Идентификатор кодека : S_TEXT/UTF8
    Идентификатор кодека/Информация : UTF-8 Plain Text
    Заголовок : Russian Forced
    Язык : Russian
    Default : Нет
    Forced : Нет
    Текст #3
    Идентификатор : 7
    Формат : ASS
    Режим смешивания : zlib
    Идентификатор кодека : S_TEXT/ASS
    Идентификатор кодека/Информация : Advanced Sub Station Alpha
    Метод сжатия : Без потерь
    Язык : English
    Default : Нет
    Forced : Нет
    Текст #4
    Идентификатор : 8
    Формат : ASS
    Режим смешивания : zlib
    Идентификатор кодека : S_TEXT/ASS
    Идентификатор кодека/Информация : Advanced Sub Station Alpha
    Метод сжатия : Без потерь
    Язык : Dutch
    Default : Нет
    Forced : Нет
    Текст #5
    Идентификатор : 9
    Формат : ASS
    Режим смешивания : zlib
    Идентификатор кодека : S_TEXT/ASS
    Идентификатор кодека/Информация : Advanced Sub Station Alpha
    Метод сжатия : Без потерь
    Язык : Finnish
    Default : Нет
    Forced : Нет
    Текст #6
    Идентификатор : 10
    Формат : ASS
    Режим смешивания : zlib
    Идентификатор кодека : S_TEXT/ASS
    Идентификатор кодека/Информация : Advanced Sub Station Alpha
    Метод сжатия : Без потерь
    Язык : French
    Default : Нет
    Forced : Нет
    Текст #7
    Идентификатор : 11
    Формат : ASS
    Режим смешивания : zlib
    Идентификатор кодека : S_TEXT/ASS
    Идентификатор кодека/Информация : Advanced Sub Station Alpha
    Метод сжатия : Без потерь
    Язык : German
    Default : Нет
    Forced : Нет
    Текст #8
    Идентификатор : 12
    Формат : ASS
    Режим смешивания : zlib
    Идентификатор кодека : S_TEXT/ASS
    Идентификатор кодека/Информация : Advanced Sub Station Alpha
    Метод сжатия : Без потерь
    Язык : Norwegian
    Default : Нет
    Forced : Нет
    Текст #9
    Идентификатор : 13
    Формат : ASS
    Режим смешивания : zlib
    Идентификатор кодека : S_TEXT/ASS
    Идентификатор кодека/Информация : Advanced Sub Station Alpha
    Метод сжатия : Без потерь
    Язык : Spanish
    Default : Нет
    Forced : Нет
    Текст #10
    Идентификатор : 14
    Формат : ASS
    Режим смешивания : zlib
    Идентификатор кодека : S_TEXT/ASS
    Идентификатор кодека/Информация : Advanced Sub Station Alpha
    Метод сжатия : Без потерь
    Язык : Swedish
    Default : Нет
    Forced : Нет
  2. Longevity:
    6 years 11 months
    Posts:
    33
    Gender:
    Male
    Большое Спасибо за фильм Улыбаюсь
    29-Jan-2017 09:53 (after 12 hours)
  3. Longevity:
    5 years 6 months
    Posts:
    5
    Gender:
    Unknown
    Добавьте скорость плиз!!))
    13-Mar-2017 00:26 (after 1 month 14 days)
  4. Longevity:
    4 years 10 months
    Posts:
    6
    Gender:
    Male
    Очень интересно я смотрю серию фильмов Звёздный путь, начал с последней части, потом посмотрел вторую, теперь скачиваю первую :)
    08-Jun-2017 17:17 (after 2 months 26 days)
  5. Longevity:
    4 years 10 months
    Posts:
    6
    Gender:
    Male
    Встаньте, пожалуйста, кто-нибудь на раздачу, скорости вообще нету.
    08-Jun-2017 17:33 (after 16 minutes)
  6. Longevity:
    7 years
    Posts:
    2413
    Gender:
    Male
    7966Встаньте, пожалуйста, кто-нибудь на раздачу, скорости вообще нету.
    Сидов: 3 Личеров: 1 Подробная статистика пиров
    08-Jun-2017 17:45 (after 11 minutes)
  7. Longevity:
    3 years 4 months
    Posts:
    1
    Gender:
    Unknown
    2,6 Гб осталось, сутки уже качаю, встанет кто на раздачу?
    23-Oct-2018 17:12 (after 1 year 4 months)
  8. Longevity:
    5 years 2 months
    Posts:
    1681
    Gender:
    Male
    Сообщение появится после проверки модератором
    23-Oct-2018 19:20 (after 2 hours 7 minutes)


You cannot post new topics in this forum
You cannot reply to topics in this forum
You cannot edit your posts in this forum
You cannot delete your posts in this forum
You cannot vote in polls in this forum
You cannot attach files in this forum
You cannot download files in this forum