[Цитировать]
Kryl

«Every generation has a story»- Информация
Название: Звёздные войны: Пробуждение силы
Оригинальное название: Star Wars: Episode VII - The Force Awakens
Год выхода: 2015
Жанр: фантастика, приключения, боевик
Режиссер: Джей Джей Абрамс
Сценарий: Лоуренс Кэздан, Джей Джей Абрамс, Майкл Арндт
Продюсер: Джей Джей Абрамс, Брайан Берк, Кэтлин Кеннеди
В ролях: Джон Бойега, Дэйзи Ридли, Оскар Айзек, Адам Драйвер, Донал Глисон, Харрисон Форд, Марк Хэмилл, Кэрри Фишер, Макс фон Сюдов, Энди Серкис, Лупита Нионго, Энтони Дэниелс
--Сюжет:
Через тридцать лет после гибели Дарта Вейдера и Императора галактика по-прежнему в опасности. Государственное образование Первый Орден во главе с их таинственным верховным лидером Сноуком и его правой рукой Кайло Реном идёт по стопам Империи, пытаясь захватить всю власть. В это нелёгкое время судьба сводит юную девушку Рей и бывшего штурмовика Первого Ордена Финна с героями времён войны с Империей — Ханом Соло, Чубаккой и генералом Леей. Вместе они должны дать бой Первому Ордену, однако настаёт тот момент, когда становится очевидно, что лишь джедаи могут остановить Сноука и Кайло Рена. И в галактике в живых остаётся только один…- - Страна: США
Продолжительность: 02:18:06

Файл
Кодек: MPEG4/ISO/AVC H.264
Формат: MKV
Качество: BDRip 720p | 60 fps
Видео: 1280 x 534 (2.397) | 59.940 fps | 10.0 Мбит/сек
Аудио 1: AC3 | 2.0 | 48 kHz | 192 kbps | 16 bit | Line - Чистый звук |
Аудио 2: AC3 | 5.1 | 48 kHz | 640 kbps | 16 bit | ENG |
Субтитры: Русские (форсированные на начальные титры и пропуски перевода) + оригинал (обычные + sdh)

MedifInfo

Видео
Идентификатор : 1
Формат : AVC
Формат/Информация : Advanced Video Codec
Профиль формата : High@L4.1
Параметр CABAC формата : Да
Параметр ReFrames формата : 3 кадра
Параметр GOP формата : M=3, N=72
Идентификатор кодека : V_MPEG4/ISO/AVC
Продолжительность : 2 ч. 18 м.
Вид битрейта : Переменный
Битрейт : 9748 Кбит/сек
Максимальный битрейт : 10000 Кбит/сек
Ширина : 1280 пикселей
Высота : 534 пикселя
Соотношение сторон : 2,40:1
Режим частоты кадров : Постоянный
Частота кадров : 59,880 кадров/сек
Частота кадров в оригинале : 59,940 кадров/сек
Стандарт вещания : PAL
Цветовое пространство : YUV
Субдискретизация насыщенности : 4:2:0
Битовая глубина : 8 бит
Тип развёртки : Прогрессивная
Бит/(Пиксели*Кадры) : 0.238
Размер потока : 9,40 Гбайт (90%)
Заголовок : www.60-fps.org
Язык : English
Default : Да
Forced : Нет
Основные цвета : BT.601 NTSC
Характеристики трансфера : BT.601
Коэффициенты матрицы : BT.601
colour_range : Limited
Аудио #1
Идентификатор : 2
Формат : AC-3
Формат/Информация : Audio Coding 3
Расширение режима : CM (complete main)
Параметр Endianness формата : Big
Идентификатор кодека : A_AC3
Продолжительность : 2 ч. 18 м.
Вид битрейта : Постоянный
Битрейт : 192 Кбит/сек
Каналы : 2 канала
Расположение каналов : Front: L R
Частота : 48,0 КГц
Битовая глубина : 16 бит
Метод сжатия : С потерями
Размер потока : 190 Мбайт (2%)
Заголовок : Дубляж - Line
Язык : Russian
Default : Да
Forced : Да
Аудио #2
Идентификатор : 3
Формат : AC-3
Формат/Информация : Audio Coding 3
Расширение режима : CM (complete main)
Параметр Endianness формата : Big
Идентификатор кодека : A_AC3
Продолжительность : 2 ч. 18 м.
Вид битрейта : Постоянный
Битрейт : 640 Кбит/сек
Каналы : 6 каналов
Расположение каналов : Front: L C R, Side: L R, LFE
Частота : 48,0 КГц
Битовая глубина : 16 бит
Метод сжатия : С потерями
Размер потока : 632 Мбайт (6%)
Заголовок : Оригинал
Язык : English
Default : Нет
Forced : Нет
Текст #1
Идентификатор : 4
Формат : UTF-8
Идентификатор кодека : S_TEXT/UTF8
Идентификатор кодека/Информация : UTF-8 Plain Text
Заголовок : Русские, форсированные
Язык : Russian
Default : Да
Forced : Да
Текст #2
Идентификатор : 5
Формат : UTF-8
Идентификатор кодека : S_TEXT/UTF8
Идентификатор кодека/Информация : UTF-8 Plain Text
Заголовок : Оригинал
Язык : English
Default : Нет
Forced : Нет
Текст #3
Идентификатор : 6
Формат : UTF-8
Идентификатор кодека : S_TEXT/UTF8
Идентификатор кодека/Информация : UTF-8 Plain Text
Заголовок : Оригинал, SDH
Язык : English
Default : Нет
Forced : Нет
Меню
00:00:00.000 : en:Opening Logo
00:00:09.259 : en:The Force Awakens
00:01:43.061 : en:The First Order Approaches
00:03:51.857 : en:Village Raid
00:06:12.289 : en:Kylo Ren
00:09:33.948 : en:FN-2187
00:10:43.560 : en:Rey
00:12:35.713 : en:Niima Outpost
00:13:39.694 : en:Rey at Home
00:14:48.221 : en:Saving BB-8
00:16:45.922 : en:Interrogation
00:18:04.583 : en:Unkar's Offer
00:19:21.535 : en:Jailbreak
00:21:26.619 : en:TIE Gighter Escape
00:24:03.651 : en:Marooned on Jakku
00:26:47.022 : en:Crossing Paths
00:29:54.668 : en:Marketplace Chase
00:31:49.324 : en:The Falcon Flies Again
00:35:51.775 : en:Introductions
00:36:40.615 : en:Kylo Is Updated
00:37:45.513 : en:Fixing the Falcon
00:40:19.250 : en:Chewie, We're Home
00:43:39.200 : en:Corellion Stand
00:45:29.560 : en:Rathtar Mayhem
00:49:22.918 : en:Supreme Leader
00:51:19.952 : en:It's All True
00:54:13.750 : en:Meeting Maz
00:59:48.794 : en:Discussions of Destinies
01:04:16.061 : en:Visions in the Force
01:08:37.238 : en:Starkiller
01:11:07.221 : en:First Order Invasion
01:15:16.387 : en:Resistance to the Rescue
01:16:49.897 : en:Kylo Finds Rey
01:19:37.523 : en:Reunion
01:20:56.894 : en:Resistance Base
01:25:36.173 : en:Rey Imprisoned
01:32:12.569 : en:Resistance Briefing
01:35:29.015 : en:Starkiller Landing
01:36:34.956 : en:Base Infiltration
01:39:28.629 : en:X-Wing Attack
01:41:29.959 : en:Rejoining Rey
01:42:57.505 : en:Into The Oscillator
01:45:00.002 : en:Father and Son
01:50:33.710 : en:Dark Forest
01:53:39.771 : en:Oscillator Breached
01:55:22.165 : en:Forest Duel
01:58:05.453 : en:Cataclysm
02:01:05.592 : en:Made Whole
02:02:32.679 : en:Finding the Master
02:07:07.578 : en:End Credits

Релиз подготовлен 60 - fps



Последний раз редактировалось: Kryl (2016-03-25 19:38), всего редактировалось 2 раз(а)

[Цитировать]
Tranch

Здравствуйте уважаемый Kryl. Спасибо Вам за релиз этого фильма, за качество и за все ваши труды и команды сайта. Не ответите на вопрос - это режиссёрская версия?

[Цитировать]
danix

merci l ami
sa c est cool

[Цитировать]
Kryl

Tranch, В сети простой блюр . Режисерской не видел .

[Цитировать]
said

дайте скорости.Плиз!!! Плачу

[Цитировать]
said

спасибо всё нормально качает.и кстати хороший сайт! Привет

[Цитировать]
BliTz

Спасибо Улыбаюсь

[Цитировать]
ENIGMA

Благодарю Вас ! Овации
Всегда восхищаюсь вашими работами - спасибо Вам за старания!

[Цитировать]
drou

смотрел в кинотеатре, фильм шик))

[Цитировать]
Александр 39

Большое Спасибо !

[Цитировать]
giesel

сконвертирован плохо лучше подождать
озвучка сама переходит в английскую озвучку.

[Цитировать]
zizu

Отличное Дакачество ОК

[Цитировать]
Андрей1982

у меня рейтинг поднялся но не разрешает качать, спасибо

[Цитировать]
Kryl

5603у меня рейтинг поднялся но не разрешает качать, спасибо
У Вас рейтинг 0,03 , а минимальный 0.3 должен быть .

[Цитировать]
Stips

Спасибо Улыбаюсь
 
Показать сообщения:    

Текущее время: 03-Дек 16:38

Часовой пояс: UTC + 3


Вы не можете начинать темы
Вы не можете отвечать на сообщения
Вы не можете редактировать свои сообщения
Вы не можете удалять свои сообщения
Вы не можете голосовать в опросах
Вы не можете прикреплять файлы к сообщениям
Вы не можете скачивать файлы