Тор: Рагнарёк / Thor: Ragnarok (2017) BDRip 1080p | 60 fps Мстители: Эра Альтрона / Avengers: Age of Ultron (2015) BDRip 1080p | 60 fps Стражи Галактики. Часть 2 / Guardians of the Galaxy Vol. 2 (2017) BDRip 1080p | 60 fps Доктор Стрэндж / Doctor Strange (2016) BDRip 1080p | 60 fps Первый мститель: Противостояние / Captain America: Civil War (2016) BDRip 1080p | 60 fps Мстители / The Avengers (2012) BDRip 720p | 60 fps Человек-паук: Возвращение домой / Spider-Man: Homecoming (2017) BDRip 1080p | 60 fps Дэдпул / Deadpool (2016) BDRip 1080p | 60 fps
  1. Стаж:
    3 года 11 месяцев
    Сообщений:
    2404
    Пол:
    Мужской
    Звездные войны: Последние джедаи Информация
    Название: Звездные войны: Последние джедаи
    Оригинальное название: Star Wars: Episode VIII - The Last Jedi
    Год выхода: 2017
    Жанр: Фантастика, фэнтези, боевик, приключения
    Режиссер: Райан Джонсон
    Сценарий: Райан Джонсон, Джордж Лукас
    Продюсер: Джей Джей Абрамс, Пиппа Андерсон
    В ролях: Джон Бойега, Дэйзи Ридли, Кэрри Фишер, Оскар Айзек, Адам Драйвер, Донал Глисон, Марк Хэмилл, Макс фон Сюдов, Энди Серкис, Лупита Нионго, Энтони Дэниелс, Питер Мейхью, Гвендолин Кристи, Пип Андерсон, Саймон Пегг, Киран Шах, Саша Фрост, Пип Торренс, Эндрю Джек

    Сюжет:
    Новая история о противостоянии света и тьмы, добра и зла начинается после гибели Хана Соло. В Галактике, где Первый Орден и Сопротивление яростно сражаются друг с другом в войне, героиня Рей пробудила в себе Силу. Но что произойдет, когда она встретится с единственным оставшимся в живых рыцарем-джедаем — Люком Скайуокером? Кайло Рен перешел на Темную сторону Силы и убил собственного отца, заняв высокую позицию в Первом Ордене. Но куда приведут его неуемные амбиции, подаренные по наследству грозным дедом Дартом Вейдером? Ситуация обострится еще больше, когда мать Кайло, лидер Сопротивления Лея, вместе с По, Финном и BB-8 приступит к новой миссии.

    Страна: США
    Продолжительность: 02:31:51

    Файл
    Кодек: H.264
    Формат: MKV
    Качество: BDRip 720p | 60 fps
    Видео: 1280 x 536 (2.388) | 60.000 fps | 12.0 Мбит/сек
    Аудио 01: AC3 | 5.1 | 48 kHz | 384 kbps | 16 bit | Дубляж - iTunes |
    Аудио 02: AC3 | 5.1 | 48 kHz | 384 kbps | 16 bit | english |
    Субтитры: русские (форс. + полные), английские (Full), английские (SDH), английские (SDH-Colored)

    MedifInfo

    Видео
    Идентификатор : 1
    Формат : AVC
    Формат/Информация : Advanced Video Codec
    Профиль формата : High@L4.1
    Параметр CABAC формата : Да
    Параметр ReFrames формата : 3 кадра
    Параметр GOP формата : M=3, N=72
    Идентификатор кодека : V_MPEG4/ISO/AVC
    Продолжительность : 2 ч. 31 м.
    Вид битрейта : Переменный
    Битрейт : 11,7 Мбит/сек
    Максимальный битрейт : 12,0 Мбит/сек
    Ширина : 1280 пикселей
    Высота : 536 пикселей
    Соотношение сторон : 2,40:1
    Режим частоты кадров : Постоянный
    Частота кадров : 59,880 кадров/сек
    Частота кадров в оригинале : 59,940 кадров/сек
    Стандарт вещания : PAL
    Цветовое пространство : YUV
    Субдискретизация насыщенности : 4:2:0
    Битовая глубина : 8 бит
    Тип развёртки : Прогрессивная
    Бит/(Пиксели*Кадры) : 0.285
    Размер потока : 12,4 Гбайт (92%)
    Заголовок : www.60-fps.org
    Язык : English
    Default : Да
    Forced : Нет
    Основные цвета : BT.601 NTSC
    Характеристики трансфера : BT.601
    Коэффициенты матрицы : BT.601
    colour_range : Limited
    Аудио #1
    Идентификатор : 2
    Формат : AC-3
    Формат/Информация : Audio Coding 3
    Расширение режима : CM (complete main)
    Параметр Endianness формата : Big
    Идентификатор кодека : A_AC3
    Продолжительность : 2 ч. 31 м.
    Вид битрейта : Постоянный
    Битрейт : 384 Кбит/сек
    Каналы : 6 каналов
    Расположение каналов : Front: L C R, Side: L R, LFE
    Частота : 48,0 КГц
    Битовая глубина : 16 бит
    Метод сжатия : С потерями
    Размер потока : 417 Мбайт (3%)
    Заголовок : Dub | DD 5.1 @ 384 kbps - iTunes
    Язык : Russian
    Default : Да
    Forced : Нет
    Аудио #2
    Идентификатор : 3
    Формат : AC-3
    Формат/Информация : Audio Coding 3
    Расширение режима : CM (complete main)
    Параметр Endianness формата : Big
    Идентификатор кодека : A_AC3
    Продолжительность : 2 ч. 31 м.
    Вид битрейта : Постоянный
    Битрейт : 448 Кбит/сек
    Каналы : 6 каналов
    Расположение каналов : Front: L C R, Side: L R, LFE
    Частота : 48,0 КГц
    Битовая глубина : 16 бит
    Метод сжатия : С потерями
    Размер потока : 487 Мбайт (3%)
    Заголовок : Original | DD 5.1 @ 448 kbps
    Язык : English
    Default : Нет
    Forced : Нет
    Текст #1
    Идентификатор : 4
    Формат : UTF-8
    Идентификатор кодека : S_TEXT/UTF8
    Идентификатор кодека/Информация : UTF-8 Plain Text
    Заголовок : Forced
    Язык : Russian
    Default : Да
    Forced : Нет
    Текст #2
    Идентификатор : 5
    Формат : UTF-8
    Идентификатор кодека : S_TEXT/UTF8
    Идентификатор кодека/Информация : UTF-8 Plain Text
    Язык : Russian
    Default : Нет
    Forced : Нет
    Текст #3
    Идентификатор : 6
    Формат : UTF-8
    Идентификатор кодека : S_TEXT/UTF8
    Идентификатор кодека/Информация : UTF-8 Plain Text
    Заголовок : Full
    Язык : English
    Default : Нет
    Forced : Нет
    Текст #4
    Идентификатор : 7
    Формат : UTF-8
    Идентификатор кодека : S_TEXT/UTF8
    Идентификатор кодека/Информация : UTF-8 Plain Text
    Заголовок : SDH
    Язык : English
    Default : Нет
    Forced : Нет
    Текст #5
    Идентификатор : 8
    Формат : UTF-8
    Идентификатор кодека : S_TEXT/UTF8
    Идентификатор кодека/Информация : UTF-8 Plain Text
    Заголовок : SDH-Colored
    Язык : English
    Default : Нет
    Forced : Нет
    Меню
    00:00:00.000 : :00:00:00.000
    00:00:18.644 : :00:00:18.644
    00:01:45.731 : :00:01:45.731
    00:03:11.817 : :00:03:11.817
    00:07:43.296 : :00:07:43.296
    00:12:48.434 : :00:12:48.434
    00:13:44.574 : :00:13:44.574
    00:16:29.280 : :00:16:29.280
    00:19:59.281 : :00:19:59.281
    00:22:51.370 : :00:22:51.370
    00:26:04.980 : :00:26:04.980
    00:27:22.850 : :00:27:22.850
    00:31:24.758 : :00:31:24.758
    00:32:54.681 : :00:32:54.681
    00:35:27.667 : :00:35:27.667
    00:38:11.498 : :00:38:11.498
    00:41:53.428 : :00:41:53.428
    00:44:29.542 : :00:44:29.542
    00:46:51.475 : :00:46:51.475
    00:51:41.932 : :00:51:41.932
    00:53:50.060 : :00:53:50.060
    00:55:41.505 : :00:55:41.505
    00:57:39.581 : :00:57:39.581
    00:59:16.636 : :00:59:16.636
    01:02:05.847 : :01:02:05.847
    01:03:07.701 : :01:03:07.701
    01:05:41.729 : :01:05:41.729
    01:07:03.478 : :01:07:03.478
    01:10:25.720 : :01:10:25.721
    01:13:30.323 : :01:13:30.323
    01:17:43.450 : :01:17:43.450
    01:20:53.057 : :01:20:53.057
    01:24:17.970 : :01:24:17.970
    01:26:23.220 : :01:26:23.220
    01:27:59.524 : :01:27:59.524
    01:30:49.361 : :01:30:49.361
    01:32:54.569 : :01:32:54.569
    01:35:53.706 : :01:35:53.706
    01:37:10.616 : :01:37:10.616
    01:39:12.864 : :01:39:12.864
    01:42:07.663 : :01:42:07.663
    01:45:03.714 : :01:45:03.714
    01:49:35.694 : :01:49:35.694
    01:52:20.609 : :01:52:20.609
    01:56:04.749 : :01:56:04.749
    01:58:52.083 : :01:58:52.083
    02:03:11.134 : :02:03:11.134
    02:06:39.759 : :02:06:39.759
    02:11:43.604 : :02:11:43.604
    02:15:12.104 : :02:15:12.104
    02:20:16.700 : :02:20:16.700
    02:23:39.694 : :02:23:39.694

    Релиз подготовлен 60 - fps

  2. Стаж:
    4 месяца 17 дней
    Сообщений:
    2
    Пол:
    Мужской
    Мне фильм понравился меньше пробуждения силы. Затянутый и довольно скучный в целом.
    04-Июн-2018 14:38 (спустя 2 месяца 18 дней)


Вы не можете начинать темы
Вы не можете отвечать на сообщения
Вы не можете редактировать свои сообщения
Вы не можете удалять свои сообщения
Вы не можете голосовать в опросах
Вы не можете прикреплять файлы к сообщениям
Вы не можете скачивать файлы