Пассажир / The Commuter (2018) BDRip 720p | 60 fps Охота на воров / Den of Thieves (2018) BDRip 1080p | 60 fps Секретное досье / The Post (2017) BDRip 720p | 60 fps Звездные войны: Последние джедаи / Star Wars: Episode VIII - The Last Jedi (2017) BDRip 1080p | 60 fps Все деньги мира / All the Money in the World (2017) BDRip 720p | 60 fps Тоня против всех / I, Tonya (2017) BDRip 720p | 60 fps Бегущий в лабиринте: Лекарство от смерти / Maze Runner: The Death Cure (2018) BDRip 1080p | 60 fps Тайна Коко / Coco (2017) BDRip 1080p | 60 fps
  1. Стаж:
    3 года 6 месяцев
    Сообщений:
    2290
    Пол:
    Мужской
    Звездные войны: Последние джедаи Информация
    Название: Звездные войны: Последние джедаи
    Оригинальное название: Star Wars: Episode VIII - The Last Jedi
    Год выхода: 2017
    Жанр: Фантастика, фэнтези, боевик, приключения
    Режиссер: Райан Джонсон
    Сценарий: Райан Джонсон, Джордж Лукас
    Продюсер: Джей Джей Абрамс, Пиппа Андерсон
    В ролях: Джон Бойега, Дэйзи Ридли, Кэрри Фишер, Оскар Айзек, Адам Драйвер, Донал Глисон, Марк Хэмилл, Макс фон Сюдов, Энди Серкис, Лупита Нионго, Энтони Дэниелс, Питер Мейхью, Гвендолин Кристи, Пип Андерсон, Саймон Пегг, Киран Шах, Саша Фрост, Пип Торренс, Эндрю Джек

    Сюжет:
    Новая история о противостоянии света и тьмы, добра и зла начинается после гибели Хана Соло. В Галактике, где Первый Орден и Сопротивление яростно сражаются друг с другом в войне, героиня Рей пробудила в себе Силу. Но что произойдет, когда она встретится с единственным оставшимся в живых рыцарем-джедаем — Люком Скайуокером? Кайло Рен перешел на Темную сторону Силы и убил собственного отца, заняв высокую позицию в Первом Ордене. Но куда приведут его неуемные амбиции, подаренные по наследству грозным дедом Дартом Вейдером? Ситуация обострится еще больше, когда мать Кайло, лидер Сопротивления Лея, вместе с По, Финном и BB-8 приступит к новой миссии.

    Страна: США
    Продолжительность: 02:31:51

    Файл
    Кодек: H.264
    Формат: MKV
    Качество: BDRip 1080p | 60 fps
    Видео: 1920 x 804 (2.388) | 60.000 fps | 25.0 Мбит/сек
    Аудио 01: AC3 | 5.1 | 48 kHz | 384 kbps | 16 bit | Дубляж - iTunes |
    Аудио 02: AC3 | 5.1 | 48 kHz | 384 kbps | 16 bit | english |
    Субтитры: русские (форс. + полные), английские (Full), английские (SDH), английские (SDH-Colored)

    MedifInfo

    Видео
    Идентификатор : 1
    Формат : AVC
    Формат/Информация : Advanced Video Codec
    Профиль формата : High@L4.1
    Параметр CABAC формата : Да
    Параметр ReFrames формата : 4 кадра
    Идентификатор кодека : V_MPEG4/ISO/AVC
    Продолжительность : 2 ч. 31 м.
    Битрейт : 25,0 Мбит/сек
    Ширина : 1920 пикселей
    Высота : 804 пикселя
    Соотношение сторон : 2,40:1
    Режим частоты кадров : Постоянный
    Частота кадров : 59,880 кадров/сек
    Частота кадров в оригинале : 59,940 кадров/сек
    Цветовое пространство : YUV
    Субдискретизация насыщенности : 4:2:0
    Битовая глубина : 8 бит
    Тип развёртки : Прогрессивная
    Бит/(Пиксели*Кадры) : 0.270
    Размер потока : 26,0 Гбайт (95%)
    Заголовок : www.60-fps.org
    Библиотека кодирования : x264 core 155 r2901 7d0ff22
    Настройки программы : cabac=1 / ref=3 / deblock=1:-3:-3 / analyse=0x3:0x113 / me=umh / subme=9 / psy=1 / psy_rd=1.00:0.25 / mixed_ref=1 / me_range=32 / chroma_me=1 / trellis=1 / 8x8dct=1 / cqm=0 / deadzone=6,6 / fast_pskip=1 / chroma_qp_offset=-4 / threads=12 / lookahead_threads=1 / sliced_threads=0 / nr=0 / decimate=0 / interlaced=0 / bluray_compat=0 / constrained_intra=0 / bframes=3 / b_pyramid=2 / b_adapt=1 / b_bias=0 / direct=1 / weightb=1 / open_gop=0 / weightp=2 / keyint=599 / keyint_min=59 / scenecut=40 / intra_refresh=0 / rc_lookahead=40 / rc=2pass / mbtree=1 / bitrate=24999 / ratetol=1.0 / qcomp=0.80 / qpmin=0 / qpmax=69 / qpstep=4 / cplxblur=20.0 / qblur=0.5 / vbv_maxrate=62500 / vbv_bufsize=78125 / nal_hrd=none / filler=0 / ip_ratio=1.10 / aq=1:0.50
    Default : Да
    Forced : Нет
    Аудио #1
    Идентификатор : 2
    Формат : AC-3
    Формат/Информация : Audio Coding 3
    Расширение режима : CM (complete main)
    Параметр Endianness формата : Big
    Идентификатор кодека : A_AC3
    Продолжительность : 2 ч. 31 м.
    Вид битрейта : Постоянный
    Битрейт : 384 Кбит/сек
    Каналы : 6 каналов
    Расположение каналов : Front: L C R, Side: L R, LFE
    Частота : 48,0 КГц
    Битовая глубина : 16 бит
    Метод сжатия : С потерями
    Размер потока : 417 Мбайт (1%)
    Заголовок : Dub | DD 5.1 @ 384 kbps - iTunes
    Язык : Russian
    Default : Да
    Forced : Нет
    Аудио #2
    Идентификатор : 3
    Формат : AC-3
    Формат/Информация : Audio Coding 3
    Расширение режима : CM (complete main)
    Параметр Endianness формата : Big
    Идентификатор кодека : A_AC3
    Продолжительность : 2 ч. 31 м.
    Вид битрейта : Постоянный
    Битрейт : 448 Кбит/сек
    Каналы : 6 каналов
    Расположение каналов : Front: L C R, Side: L R, LFE
    Частота : 48,0 КГц
    Битовая глубина : 16 бит
    Метод сжатия : С потерями
    Размер потока : 487 Мбайт (2%)
    Заголовок : Original | DD 5.1 @ 448 kbps
    Язык : English
    Default : Нет
    Forced : Нет
    Текст #1
    Идентификатор : 4
    Формат : UTF-8
    Идентификатор кодека : S_TEXT/UTF8
    Идентификатор кодека/Информация : UTF-8 Plain Text
    Заголовок : Forced
    Язык : Russian
    Default : Да
    Forced : Нет
    Текст #2
    Идентификатор : 5
    Формат : UTF-8
    Идентификатор кодека : S_TEXT/UTF8
    Идентификатор кодека/Информация : UTF-8 Plain Text
    Язык : Russian
    Default : Нет
    Forced : Нет
    Текст #3
    Идентификатор : 6
    Формат : UTF-8
    Идентификатор кодека : S_TEXT/UTF8
    Идентификатор кодека/Информация : UTF-8 Plain Text
    Заголовок : Full
    Язык : English
    Default : Нет
    Forced : Нет
    Текст #4
    Идентификатор : 7
    Формат : UTF-8
    Идентификатор кодека : S_TEXT/UTF8
    Идентификатор кодека/Информация : UTF-8 Plain Text
    Заголовок : SDH
    Язык : English
    Default : Нет
    Forced : Нет
    Текст #5
    Идентификатор : 8
    Формат : UTF-8
    Идентификатор кодека : S_TEXT/UTF8
    Идентификатор кодека/Информация : UTF-8 Plain Text
    Заголовок : SDH-Colored
    Язык : English
    Default : Нет
    Forced : Нет
    Меню
    00:00:00.000 : :00:00:00.000
    00:00:18.644 : :00:00:18.644
    00:01:45.731 : :00:01:45.731
    00:03:11.817 : :00:03:11.817
    00:07:43.296 : :00:07:43.296
    00:12:48.434 : :00:12:48.434
    00:13:44.574 : :00:13:44.574
    00:16:29.280 : :00:16:29.280
    00:19:59.281 : :00:19:59.281
    00:22:51.370 : :00:22:51.370
    00:26:04.980 : :00:26:04.980
    00:27:22.850 : :00:27:22.850
    00:31:24.758 : :00:31:24.758
    00:32:54.681 : :00:32:54.681
    00:35:27.667 : :00:35:27.667
    00:38:11.498 : :00:38:11.498
    00:41:53.428 : :00:41:53.428
    00:44:29.542 : :00:44:29.542
    00:46:51.475 : :00:46:51.475
    00:51:41.932 : :00:51:41.932
    00:53:50.060 : :00:53:50.060
    00:55:41.505 : :00:55:41.505
    00:57:39.581 : :00:57:39.581
    00:59:16.636 : :00:59:16.636
    01:02:05.847 : :01:02:05.847
    01:03:07.701 : :01:03:07.701
    01:05:41.729 : :01:05:41.729
    01:07:03.478 : :01:07:03.478
    01:10:25.720 : :01:10:25.721
    01:13:30.323 : :01:13:30.323
    01:17:43.450 : :01:17:43.450
    01:20:53.057 : :01:20:53.057
    01:24:17.970 : :01:24:17.970
    01:26:23.220 : :01:26:23.220
    01:27:59.524 : :01:27:59.524
    01:30:49.361 : :01:30:49.361
    01:32:54.569 : :01:32:54.569
    01:35:53.706 : :01:35:53.706
    01:37:10.616 : :01:37:10.616
    01:39:12.864 : :01:39:12.864
    01:42:07.663 : :01:42:07.663
    01:45:03.714 : :01:45:03.714
    01:49:35.694 : :01:49:35.694
    01:52:20.609 : :01:52:20.609
    01:56:04.749 : :01:56:04.749
    01:58:52.083 : :01:58:52.083
    02:03:11.134 : :02:03:11.134
    02:06:39.759 : :02:06:39.759
    02:11:43.604 : :02:11:43.604
    02:15:12.104 : :02:15:12.104
    02:20:16.700 : :02:20:16.700
    02:23:39.694 : :02:23:39.694

    Релиз подготовлен 60 - fps



Вы не можете начинать темы
Вы не можете отвечать на сообщения
Вы не можете редактировать свои сообщения
Вы не можете удалять свои сообщения
Вы не можете голосовать в опросах
Вы не можете прикреплять файлы к сообщениям
Вы не можете скачивать файлы