Властелин колец: Трилогия / The Lord of the Rings: Trilogy (2001-2003) BDRip-AVC | Extended Cut | 60 fps Принц Персии: Пески времени / Prince of Persia: The Sands of Time (2010) BDRip 1080p | 60 fps День, когда Земля остановилась / The Day the Earth Stood Still (2008) BDRip 1080p | 60 fps Пятый элемент / The Fifth Element (1997) BDRip 1080p | 60 fps Охота / The Hunt (2020) BDRip 1080p | 60 fps Удивительное путешествие доктора Дулиттла / Dolittle (2020) BDRip 1080p | 60 fps Фантастическая четверка : Дилогия / Fantastic Four: Dilogy (2005-2007) BDRip 1080p | 60 fps Пиноккио / Pinocchio (2019) BDRip 720p | 60 fps
  1. Longevity:
    6 years
    Posts:
    311
    Gender:
    Male
    Звездная пыль / Stardust (2007) BDRip 720p | 60fps«Сказка, которую не расскажешь на ночь»- Информация о фильме
    Название: Звездная пыль
    Оригинальное название: Stardust
    Год выхода: 2007
    Жанр: Фэнтези, мелодрама, приключения, семейный
    Режиссер: Мэттью Вон
    Продюсер: Лоренцо Ди Бонавентура, Майкл Дрейер, Нил Гейман
    В ролях: Клер Дэйнс, Иэн МакКеллен, Бимбо Харт, Алистер Макинтош, Дэвид Келли, Бен Барнс, Кейт Магован, Мелани Хилл, Чарли Кокс, Мишель Пфайффер, Роберт Де Ниро
    Описание фильма:
    Маленькая английская деревенька отделена древней стеной от сверхъестественной параллельной вселенной, где царят магия и волшебство. Молодой Тристан Торн опрометчиво обещает самой красивой девушке деревни, что принесёт ей слетевшую с неба звезду, упавшую по ту сторону стены.
    На своём пути по следам древних легенд Тристан встретит заговорщиков-сыновей всесильного короля, могущественную ведьму, капитана пиратского корабля и хитроумного торговца, а также найдёт свою истинную любовь, ключ к пониманию своей сущности и судьбы, о которой он мог только мечтать.
    Страна: Великобритания, США, Исландия
    Студия: Marv Films, Paramount Pictures, Di Bonaventura Pictures
    Продолжительность: 02:07:41
    Перевод: Дублированный (Лицензия)
    Субтитры: Отсутствуют

    Дата мировой премьеры: 10 августа 2007
    Дата российской премьеры: 9 августа 2007, «UPI»
    Дата выхода DVD релиза: 30 сентября 2010, «ВС трейд»
    Файл
    Формат: MKV
    Кодек: MPEG-4 AVC/H.264
    Качество: BDRip 720p
    Видео: ~ 5120 Кбит/сек, 1280 x 536, 59.940 кадров/сек
    Аудио: AC3 5.1, 48.0 KHz, 448 Кбит/сек - Русский

    MediaInfo

    Общее
    Уникальный идентификатор : 219162371379844398855922013025200996478 (0xA4E1232AD559D4BAB4D4F4B34D1F807E)
    Полное имя : C:\Users\Дом\Documents\StarDust 60fps.mkv
    Формат : Matroska
    Версия формата : Version 2
    Размер файла : 5,07 Гбайт
    Продолжительность : 2 ч. 7 м.
    Общий поток : 5682 Кбит/сек
    Дата кодирования : UTC 2015-10-23 01:20:13
    Программа кодирования : mkvmerge v6.1.0 ('Old Devil') built on Mar 4 2013 09:10:42
    Библиотека кодирования : libebml v1.3.0 + libmatroska v1.4.0
    Видео
    Идентификатор : 1
    Формат : AVC
    Формат/Информация : Advanced Video Codec
    Профиль формата : High@L4.1
    Параметр CABAC формата : Да
    Параметр ReFrames формата : 6 кадров
    Идентификатор кодека : V_MPEG4/ISO/AVC
    Продолжительность : 2 ч. 7 м.
    Битрейт : 5120 Кбит/сек
    Ширина : 1280 пикселей
    Высота : 536 пикселей
    Соотношение сторон : 2,40:1
    Режим частоты кадров : Постоянный
    Частота кадров : 59,880 кадров/сек
    Частота кадров в оригинале : 59,940 кадров/сек
    Цветовое пространство : YUV
    Субдискретизация насыщенности : 4:2:0
    Битовая глубина : 8 бит
    Тип развёртки : Прогрессивная
    Бит/(Пиксели*Кадры) : 0.125
    Размер потока : 4,57 Гбайт (90%)
    Библиотека кодирования : x264 core 130 r2273 b3065e6
    Настройки программы : cabac=1 / ref=6 / deblock=1:0:0 / analyse=0x3:0x133 / me=umh / subme=8 / psy=1 / psy_rd=1.00:0.15 / mixed_ref=1 / me_range=20 / chroma_me=1 / trellis=2 / 8x8dct=1 / cqm=0 / deadzone=21,11 / fast_pskip=0 / chroma_qp_offset=-3 / threads=6 / lookahead_threads=2 / sliced_threads=0 / nr=0 / decimate=0 / interlaced=0 / bluray_compat=0 / constrained_intra=0 / bframes=8 / b_pyramid=2 / b_adapt=2 / b_bias=0 / direct=1 / weightb=1 / open_gop=0 / weightp=2 / keyint=250 / keyint_min=25 / scenecut=40 / intra_refresh=0 / rc=crf / mbtree=0 / crf=18.0 / qcomp=0.63 / qpmin=10 / qpmax=51 / qpstep=4 / ip_ratio=1.40 / pb_ratio=1.30 / aq=1:1.20
    Default : Да
    Forced : Нет
    Аудио
    Идентификатор : 2
    Формат : AC-3
    Формат/Информация : Audio Coding 3
    Расширение режима : CM (complete main)
    Параметр Endianness формата : Big
    Идентификатор кодека : A_AC3
    Продолжительность : 2 ч. 7 м.
    Вид битрейта : Постоянный
    Битрейт : 448 Кбит/сек
    Каналы : 6 каналов
    Расположение каналов : Front: L C R, Side: L R, LFE
    Частота : 48,0 КГц
    Битовая глубина : 16 бит
    Метод сжатия : С потерями
    Размер потока : 409 Мбайт (8%)
    Default : Да
    Forced : Нет
    Скриншоты:

    Release was prepared by 60 - fps

  2. Longevity:
    2 years 11 months
    Posts:
    2
    Gender:
    Unknown
    Пожалуйста, встаньте на раздачу
    21-Dec-2017 19:33 (after 2 years 1 month)
  3. Longevity:
    2 years 11 months
    Posts:
    1
    Gender:
    Unknown
    Звука нет, на 3х кодеках прогонял.
    04-Jan-2018 17:28 (after 13 days)


You cannot post new topics in this forum
You cannot reply to topics in this forum
You cannot edit your posts in this forum
You cannot delete your posts in this forum
You cannot vote in polls in this forum
You cannot attach files in this forum
You cannot download files in this forum