1. Longevity:
    7 years
    Posts:
    2413
    Gender:
    Male
    Зов героев / Wei cheng jian ba (2016) BDRip 720p | 60 fps- Информация
    Название: Зов героев
    Оригинальное название: Wei cheng jian ba
    Год выхода: 2016
    Жанр: Боевик
    Режиссер: Бенни Чан
    Сценарий: Бенни Чан
    Продюсер: Бенни Чан, Элвин Лам, Элвин Чоу
    В ролях: Шон Лау, Луис Ку, Эдди Пэн, Юань Цуань, Мэгги Цзян, Лиу Кай-Чи, Джеки Ву, Филип Кюн, Саммо Хун, Берг Нг
    --Сюжет:
    В начале XX века после крушения династии Цинь Китай погружается в хаос гражданских войн. Множество группировок в различных регионах страны берут власть в свои руки, параллельно враждуя друг с другом. Группа селян из отдалённой деревни объединяется, чтобы дать отпор лидеру жестокой вооружённой банды.- Страна: Гонконг, Китай
    Продолжительность: 01:59:29

    Файл
    Кодек: MPEG4/ISO/AVC/H.264
    Формат: MKV
    Качество: BDRip 720p | 60 fps
    Видео: 1280 x 542 (2.362) | 60.000 fps | 8.0 Мбит/сек
    Аудио 1: AC3 | 5.1 | 48 kHz | 640 kbps | 16 bit | Авторский одноголосый - Андрей Дольский |
    Аудио 2: AC3 | 2.0 | 48 kHz | 192 kbps | 16 bit | Любительский двухголосый, закадровый - GREEN TEA |
    Субтитры: Eng

    MedifInfo

    Видео
    Идентификатор : 1
    Формат : AVC
    Формат/Информация : Advanced Video Codec
    Профиль формата : [email protected]
    Параметр CABAC формата : Да
    Параметр ReFrames формата : 5 кадров
    Идентификатор кодека : V_MPEG4/ISO/AVC
    Продолжительность : 1 ч. 59 м.
    Битрейт : 7999 Кбит/сек
    Ширина : 1280 пикселей
    Высота : 542 пикселя
    Соотношение сторон : 2,35:1
    Режим частоты кадров : Постоянный
    Частота кадров : 60,000 кадров/сек
    Цветовое пространство : YUV
    Субдискретизация насыщенности : 4:2:0
    Битовая глубина : 8 бит
    Тип развёртки : Прогрессивная
    Бит/(Пиксели*Кадры) : 0.192
    Размер потока : 6,52 Гбайт (89%)
    Заголовок : www.60-fps.org
    Библиотека кодирования : x264 core 148 r2638 7599210
    Настройки программы : cabac=1 / ref=5 / deblock=1:-3:-3 / analyse=0x3:0x113 / me=umh / subme=8 / psy=1 / psy_rd=1.00:0.25 / mixed_ref=1 / me_range=32 / chroma_me=1 / trellis=1 / 8x8dct=1 / cqm=0 / deadzone=6,6 / fast_pskip=1 / chroma_qp_offset=-4 / threads=12 / lookahead_threads=2 / sliced_threads=0 / nr=0 / decimate=0 / interlaced=0 / bluray_compat=0 / constrained_intra=0 / bframes=3 / b_pyramid=2 / b_adapt=2 / b_bias=0 / direct=3 / weightb=1 / open_gop=0 / weightp=2 / keyint=600 / keyint_min=59 / scenecut=40 / intra_refresh=0 / rc_lookahead=50 / rc=2pass / mbtree=1 / bitrate=7999 / ratetol=1.0 / qcomp=0.80 / qpmin=0 / qpmax=69 / qpstep=4 / cplxblur=20.0 / qblur=0.5 / vbv_maxrate=62500 / vbv_bufsize=78125 / nal_hrd=none / filler=0 / ip_ratio=1.10 / aq=1:0.50
    Default : Да
    Forced : Нет
    Аудио #1
    Идентификатор : 2
    Формат : AC-3
    Формат/Информация : Audio Coding 3
    Расширение режима : CM (complete main)
    Параметр Endianness формата : Big
    Идентификатор кодека : A_AC3
    Продолжительность : 1 ч. 59 м.
    Вид битрейта : Постоянный
    Битрейт : 640 Кбит/сек
    Каналы : 6 каналов
    Расположение каналов : Front: L C R, Side: L R, LFE
    Частота : 48,0 КГц
    Битовая глубина : 16 бит
    Метод сжатия : С потерями
    Размер потока : 547 Мбайт (7%)
    Заголовок : Авторский одноголосый - Андрей Дольский
    Язык : Russian
    Default : Да
    Forced : Нет
    Аудио #2
    Идентификатор : 3
    Формат : AC-3
    Формат/Информация : Audio Coding 3
    Расширение режима : CM (complete main)
    Параметр Endianness формата : Big
    Идентификатор кодека : A_AC3
    Продолжительность : 1 ч. 59 м.
    Вид битрейта : Постоянный
    Битрейт : 192 Кбит/сек
    Каналы : 2 канала
    Расположение каналов : Front: L R
    Частота : 48,0 КГц
    Битовая глубина : 16 бит
    Метод сжатия : С потерями
    Размер потока : 164 Мбайт (2%)
    Заголовок : Любительский двухголосый, закадровый - GREEN TEA
    Язык : Russian
    Default : Нет
    Forced : Нет
    Текст
    Идентификатор : 4
    Формат : UTF-8
    Идентификатор кодека : S_TEXT/UTF8
    Идентификатор кодека/Информация : UTF-8 Plain Text
    Заголовок : Subtitle eng
    Язык : English
    Default : Нет
    Forced : Нет
    Меню
    00:00:00.000 : :Глава 01
    00:08:56.208 : :Глава 02
    00:24:09.958 : :Глава 03
    00:32:18.166 : :Глава 04
    00:40:09.041 : :Глава 05
    00:45:38.375 : :Глава 06
    00:53:11.583 : :Глава 07
    01:00:14.666 : :Глава 08
    01:14:37.583 : :Глава 09
    01:20:53.458 : :Глава 10
    01:30:44.500 : :Глава 11
    01:41:10.208 : :Глава 12
    01:50:31.166 : :Глава 13
    01:55:08.458 : :Глава 14

    Release was prepared by 60-fps.org

  2. Longevity:
    5 years 5 months
    Posts:
    6
    Gender:
    Unknown
    Как сам фильм? Как озвучка?
    24-Mar-2017 21:11 (after 15 days)


You cannot post new topics in this forum
You cannot reply to topics in this forum
You cannot edit your posts in this forum
You cannot delete your posts in this forum
You cannot vote in polls in this forum
You cannot attach files in this forum
You cannot download files in this forum