Суперсемейка 2 / Incredibles 2 (2018) BDRip 1080p | 60 fps Человек-паук: Через вселенные / Spider-Man: Into the Spider-Verse (2018) BDRip 1080p | 60 fps Ральф против интернета / Ralph Breaks the Internet (2018) BDRip 1080p | 60 fps Тайна Коко / Coco (2017) BDRip 1080p | 60 fps Тайная жизнь домашних животных / The Secret Life of Pets (2016) BDRip 1080p | 60 fps Монстры на каникулах 3: Море зовёт / Hotel Transylvania 3: Summer Vacation (2018) BDRip 720p | 60 fps Смолфут / Smallfoot (2018) BDRip 720p | 60 fps Город героев / Big Hero 6 (2014) BDRip 1080p | 60 FPS
  1. Gender:
    Unknown
    -Название: Золушка
    Оригинальное название: Cinderella
    Год выпуска: 1950
    Страна: США
    Жанр: мультфильм, мюзикл, фэнтези, мелодрама, семейный
    Продолжительность: 01:14:28
    Перевод: Дубляж
    Субтитры: русские (Полные), английские (Полные)-Режиссер: Клайд Джероними / Clyde Geronimi, Уилфред Джексон / Wilfred Jackson, Хэмильтон Ласки / Hamilton Luske-В ролях: Илен Вудс (Cinderella, озвучка), Элеонор Одли (Lady Tremaine, озвучка), Верна Фелтон (Fairy Godmother, озвучка), Рода Уильямс (Drizella, озвучка), Джеймс МакДональд (Gus / Jaques, озвучка), Луис Ван Рутен (King / Grand Duke, озвучка), Дон Барклай (Doorman, озвучка), Люсиль Блисс (Anastasia, озвучка, в титрах не указана), Мэрион Дарлингтон (Birds, озвучка, в титрах не указана), Майк Дуглас (Prince Charming, исполнитель песни, в титрах не указан), Джун Форэй (Lucifer, озвучка, в титрах не указана), Бетти Лу Джерсон (рассказчик, озвучка, в титрах не указана)-Описание:
    Золушка - бедная сиротка, которую злая мачеха и ее вздорные дочки заставляют тяжко работать с утра до ночи. Она так хочет попасть на королевский бал. На помощь бедняжке приходит Добрая фея! Силой волшебства она наделяет Золушку роскошной каретой, чудесным платьем и необыкновенными хрустальными башмачками.-Рейтинг

    imdb.com: 7.30 (80 493)
    MPAA: G - Нет возрастных ограничений-Автор рипа:Tiberiumsun69
    -Качество: BDRip 1080p / 60 FPS
    Формат: MKV
    Видео кодек: AVC
    Аудио кодек:AC3
    Видео: AVC, 1456x1080 (4:3), 11434 kbps, 59,940 fps, 0,121 bpp
    Аудио №1: русский / AC3 / 5.1 / 48 kHz / 640 kbps / 16 bit |Дубляж|
    Аудио №2: английский / AC3 / 5.1 / 48 kHz / 640 kbps / 16 bit
    Навигация по главам: есть- -

    MI

    General
    Unique ID : 210302803918856200877613604050304124325 (0x9E36D8C451B2BDC2B2F6D95961B245A5)
    Complete name : A:1080p 60fpsЗолушка 1080p 60fps.mkv
    Format : Matroska
    Format version : Version 4 / Version 2
    File size : 6.75 GiB
    Duration : 1h 14mn
    Overall bit rate : 13.0 Mbps
    Encoded date : UTC 2014-09-29 13:24:27
    Writing application : mkvmerge v6.9.1 ('Blue Panther') 64bit built on Apr 18 2014 18:23:38
    Writing library : libebml v1.3.0 + libmatroska v1.4.1
    Video
    ID : 1
    Format : AVC
    Format/Info : Advanced Video Codec
    Format profile : High@L4.1
    Format settings, CABAC : Yes
    Format settings, ReFrames : 4 frames
    Codec ID : V_MPEG4/ISO/AVC
    Duration : 1h 14mn
    Bit rate : 11.4 Mbps
    Width : 1 456 pixels
    Height : 1 080 pixels
    Display aspect ratio : 4:3
    Frame rate : 59.940 fps
    Color space : YUV
    Chroma subsampling : 4:2:0
    Bit depth : 8 bits
    Scan type : Progressive
    Bits/(Pixel*Frame) : 0.121
    Stream size : 5.95 GiB (88%)
    Writing library : x264 core 130 r2273 b3065e6
    Encoding settings : cabac=1 / ref=4 / deblock=1:0:0 / analyse=0x3:0 / me=umh / subme=9 / psy=1 / psy_rd=0.00:0.00 / mixed_ref=1 / me_range=42 / chroma_me=0 / trellis=1 / 8x8dct=1 / cqm=0 / deadzone=21,11 / fast_pskip=0 / chroma_qp_offset=0 / threads=12 / lookahead_threads=1 / sliced_threads=0 / nr=0 / decimate=0 / interlaced=0 / bluray_compat=0 / constrained_intra=0 / bframes=5 / b_pyramid=2 / b_adapt=2 / b_bias=0 / direct=1 / weightb=1 / open_gop=0 / weightp=2 / keyint=594 / keyint_min=59 / scenecut=40 / intra_refresh=0 / rc=crf / mbtree=0 / crf=14.0 / qcomp=0.60 / qpmin=0 / qpmax=69 / qpstep=4 / ip_ratio=1.40 / pb_ratio=1.30 / aq=1:0.90
    Language : English
    Default : Yes
    Forced : No
    Audio #1
    ID : 2
    Format : AC-3
    Format/Info : Audio Coding 3
    Mode extension : CM (complete main)
    Codec ID : A_AC3
    Duration : 1h 14mn
    Bit rate mode : Constant
    Bit rate : 640 Kbps
    Channel(s) : 6 channels
    Channel positions : Front: L C R, Side: L R, LFE
    Sampling rate : 48.0 KHz
    Bit depth : 16 bits
    Compression mode : Lossy
    Stream size : 341 MiB (5%)
    Title : Дубляж
    Language : Russian
    Default : Yes
    Forced : No
    Audio #2
    ID : 3
    Format : AC-3
    Format/Info : Audio Coding 3
    Mode extension : CM (complete main)
    Codec ID : A_AC3
    Duration : 1h 14mn
    Bit rate mode : Constant
    Bit rate : 640 Kbps
    Channel(s) : 6 channels
    Channel positions : Front: L C R, Side: L R, LFE
    Sampling rate : 48.0 KHz
    Bit depth : 16 bits
    Compression mode : Lossy
    Stream size : 341 MiB (5%)
    Title : Оригинал
    Language : English
    Default : No
    Forced : No
    Text #1
    ID : 4
    Format : UTF-8
    Codec ID : S_TEXT/UTF8
    Codec ID/Info : UTF-8 Plain Text
    Title : Полные
    Language : Russian
    Default : No
    Forced : No
    Text #2
    ID : 5
    Format : UTF-8
    Codec ID : S_TEXT/UTF8
    Codec ID/Info : UTF-8 Plain Text
    Title : Полные
    Language : English
    Default : No
    Forced : No
    Menu
    00:00:00.000 : ru:01. Вступительные титры
    00:01:23.166 : ru:02. Давным давно...
    00:04:20.719 : ru:03. Мечте я верить буду!
    00:07:37.415 : ru:04. Гость - Газ
    00:10:15.240 : ru:05. Его Величество Люцифер
    00:13:29.142 : ru:06. Отвлекающий манёвр
    00:17:39.308 : ru:07. Кушать подано
    00:22:07.826 : ru:08. Домашнее задание
    00:23:32.953 : ru:09. Назначить бал! Сегодня!
    00:26:05.731 : ru:10. Пой, Соловушка!
    00:27:55.173 : ru:11. Приглашение на бал
    00:31:00.150 : ru:12. Поможем Золушке
    00:33:32.510 : ru:13. Бусы для Золушки
    00:36:49.040 : ru:14. Дружные портные
    00:38:55.708 : ru:15. Сюрприз!
    00:42:02.103 : ru:16. Фея
    00:44:11.983 : ru:17. Биббиди-Боббиди-Бум!
    00:48:23.109 : ru:18. Провал?
    00:52:54.171 : ru:19. Вальс!
    00:56:57.122 : ru:20. Отчет королю
    01:00:42.472 : ru:21. Взаперти
    01:04:11.097 : ru:22. Указ короля
    01:07:34.801 : ru:23. Всегда есть выход!
    01:13:05.715 : ru:24. Мечты сбываются

    Скриншоты

    Просьба к переливающим на другие сайты, в оформлении указывайте пожалуйста авторство рипа - Tiberiumsun69
  2. bot

    Longevity:
    4 years 7 months
    Posts:
    417
    Gender:
    Unknown
    Топик был перенесен из форума Зарубежные фильмы 60fps в форум Мультфильмы 60fps
    Tiberiumsun69
    17-Oct-2014 21:36 (after 10 days)


You cannot post new topics in this forum
You cannot reply to topics in this forum
You cannot edit your posts in this forum
You cannot delete your posts in this forum
You cannot vote in polls in this forum
You cannot attach files in this forum
You cannot download files in this forum