-Название: Знамение
Оригинальное название: Knowing
Год выпуска: 2009
Страна: США, Великобритания, Австралия
Жанр: фантастика, боевик, триллер, драма, детектив
Продолжительность: 02:01:29
Перевод: Дублированный, Многоголосый закадровый
Субтитры: Русские (полные), Английские (полные)
Вид субтитров: Вшитые, Отключаемые-Режиссер: Алекс Пройас / Alex Proyas-В ролях: Николас Кейдж (John Koestler), Роуз Бирн (Diana), Чандлер Кентербери (Caleb Koestler), Лара Робинсон (Abby / Lucinda), Бен Мендельсон (Phil Beckman), Д.Г. Малоуни (The Stranger), Надя Таунсенд (Grace), Алан Хопгуд (Reverend Koestler), Эдриэнн Пикеринг (Allison), Джошуа Лонг (Younger Caleb), Даниэль Картер (Miss Taylor (1959)), Алетеа МакГрат (Miss Taylor (2009))-Описание:
После вскрытия «временной капсулы», в которую в 1959 группа школьников поместила рисунки со своим видением будущего, в руки к профессору Джону Кестлеру попадает загадочный лист, сверху до низу исписанный цифрами. В поисках расшифровки содержания листа, Кестлер устанавливает загадочную связь между цифрами и крупнейшими мировыми бедствиями, произошедшими на Земле за последние 50 лет. Если верить цифрам, трагедий не избежать и в будущем, только теперь Кестлер знает, когда их ожидать. Но есть ли возможность их предотвратить? И самое главное: что будет, когда цепочка цифр кончится?-Рейтинг
kinopoisk.ru: 6.931 (71 030)
imdb.com: 6.20 (162 225)
MPAA: PG-13 - Детям до 13 лет просмотр не желателен-Качество: BDRip 1080p / 60 FPS
Формат: MKV
Видео кодек: AVC
Аудио кодек:AC3
Битрейт видео: ~11000 kb/s
Размер кадра: 1920*816
Аудио 1 Русский: AC3 5.1, 448 kb/s, Дубляж BD CEE
Аудио 2 Русский: AC3 5.1, 448 kb/s, Многоголосый закадровый, Студия Киномания
Аудио 3 Английский: AC3 5.1, 640 kb/s
Навигация по главам: есть-

MI

Общее
Уникальный идентификатор : 250483632195365143592364991160598916669 (0xBC71648D630D6C7AA75E97809147EE3D)
Полное имя : A:1080p 60fpsЗнамение 1080p 60fps.mkv
Формат : Matroska
Версия формата : Version 4 / Version 2
Размер файла : 10,9 Гбайт
Продолжительность : 2 ч. 1 м.
Общий поток : 12,8 Мбит/сек
Дата кодирования : UTC 2014-07-29 16:00:00
Программа кодирования : mkvmerge v6.9.1 ('Blue Panther') 64bit built on Apr 18 2014 18:23:38
Библиотека кодирования : libebml v1.3.0 + libmatroska v1.4.1
Видео
Идентификатор : 1
Формат : AVC
Формат/Информация : Advanced Video Codec
Профиль формата : High@L4.1
Параметр CABAC формата : Да
Параметр ReFrames формата : 4 кадра
Идентификатор кодека : V_MPEG4/ISO/AVC
Продолжительность : 2 ч. 1 м.
Битрейт : 11,0 Мбит/сек
Ширина : 1920 пикселей
Высота : 816 пикселей
Соотношение сторон : 2,35:1
Режим частоты кадров : Постоянный
Частота кадров : 59,880 кадров/сек
Частота кадров в оригинале : 59,940 кадров/сек
Цветовое пространство : YUV
Субдискретизация насыщенности : 4:2:0
Битовая глубина : 8 бит
Тип развёртки : Прогрессивная
Бит/(Пиксели*Кадры) : 0.117
Размер потока : 9,33 Гбайт (86%)
Библиотека кодирования : x264 core 130 r2273 b3065e6
Настройки программы : cabac=1 / ref=4 / deblock=1:-1:-1 / analyse=0x3:0 / me=umh / subme=9 / psy=1 / psy_rd=1.00:0.10 / mixed_ref=1 / me_range=42 / chroma_me=0 / trellis=2 / 8x8dct=1 / cqm=0 / deadzone=21,11 / fast_pskip=0 / chroma_qp_offset=-3 / threads=12 / lookahead_threads=1 / sliced_threads=0 / nr=0 / decimate=0 / interlaced=0 / bluray_compat=0 / constrained_intra=0 / bframes=5 / b_pyramid=2 / b_adapt=2 / b_bias=0 / direct=1 / weightb=1 / open_gop=0 / weightp=2 / keyint=594 / keyint_min=59 / scenecut=40 / intra_refresh=0 / rc=crf / mbtree=0 / crf=13.0 / qcomp=0.60 / qpmin=0 / qpmax=69 / qpstep=4 / ip_ratio=1.40 / pb_ratio=1.30 / aq=0
Язык : English
Default : Да
Forced : Нет
Аудио #1
Идентификатор : 2
Формат : AC-3
Формат/Информация : Audio Coding 3
Расширение режима : CM (complete main)
Параметр Endianness формата : Big
Идентификатор кодека : A_AC3
Продолжительность : 2 ч. 1 м.
Вид битрейта : Постоянный
Битрейт : 448 Кбит/сек
Каналы : 6 каналов
Расположение каналов : Front: L C R, Side: L R, LFE
Частота : 48,0 КГц
Битовая глубина : 16 бит
Метод сжатия : С потерями
Размер потока : 389 Мбайт (4%)
Заголовок : Дубляж
Язык : Russian
Default : Да
Forced : Нет
Аудио #2
Идентификатор : 3
Формат : AC-3
Формат/Информация : Audio Coding 3
Расширение режима : CM (complete main)
Параметр Endianness формата : Big
Идентификатор кодека : A_AC3
Продолжительность : 2 ч. 1 м.
Вид битрейта : Постоянный
Битрейт : 448 Кбит/сек
Каналы : 6 каналов
Расположение каналов : Front: L C R, Side: L R, LFE
Частота : 48,0 КГц
Битовая глубина : 16 бит
Метод сжатия : С потерями
Размер потока : 389 Мбайт (4%)
Заголовок : MVO Киномания
Язык : Russian
Default : Нет
Forced : Нет
Аудио #3
Идентификатор : 6
Формат : AC-3
Формат/Информация : Audio Coding 3
Расширение режима : CM (complete main)
Параметр Endianness формата : Big
Идентификатор кодека : A_AC3
Продолжительность : 2 ч. 1 м.
Вид битрейта : Постоянный
Битрейт : 640 Кбит/сек
Каналы : 6 каналов
Расположение каналов : Front: L C R, Side: L R, LFE
Частота : 48,0 КГц
Битовая глубина : 16 бит
Метод сжатия : С потерями
Размер потока : 556 Мбайт (5%)
Заголовок : Original
Язык : English
Default : Нет
Forced : Нет
Текст #1
Идентификатор : 4
Формат : UTF-8
Идентификатор кодека : S_TEXT/UTF8
Идентификатор кодека/Информация : UTF-8 Plain Text
Заголовок : Full
Язык : Russian
Default : Нет
Forced : Нет
Текст #2
Идентификатор : 5
Формат : UTF-8
Идентификатор кодека : S_TEXT/UTF8
Идентификатор кодека/Информация : UTF-8 Plain Text
Заголовок : Full
Язык : English
Default : Нет
Forced : Нет
Меню
00:00:00.000 : en:00:00:00.000
00:08:35.096 : en:00:08:35.096
00:15:20.210 : en:00:15:20.210
00:20:28.143 : en:00:20:28.143
00:29:06.827 : en:00:29:06.827
00:36:52.751 : en:00:36:52.751
00:43:17.010 : en:00:43:17.010
00:49:04.523 : en:00:49:04.523
00:56:09.740 : en:00:56:09.740
01:02:30.371 : en:01:02:30.371
01:08:11.545 : en:01:08:11.545
01:16:17.322 : en:01:16:17.322
01:22:58.097 : en:01:22:58.097
01:30:14.699 : en:01:30:14.699
01:39:33.509 : en:01:39:33.509
01:50:31.166 : en:01:50:31.166
02:01:28.447 : en:02:01:28.447

Скриншоты

[60-fps.org].t41.torrent
Торрент: Зарегистрирован [ 2014-10-17 09:20 ] · 7120CBEE9C0C4F5B51BB7BBF4F160D9A0E620F01

Скачать .torrent

Скачать

28 KB

Статус: проверено
Скачан: 44 раз
Поблагодарили:
Размер: 10,85 GB
 
 
Показать сообщения:    

Текущее время: 20-Фев 07:10

Часовой пояс: UTC + 3


Вы не можете начинать темы
Вы не можете отвечать на сообщения
Вы не можете редактировать свои сообщения
Вы не можете удалять свои сообщения
Вы не можете голосовать в опросах
Вы не можете прикреплять файлы к сообщениям
Вы можете скачивать файлы