[Цитировать]
Kryl

«Meet Joe Black: Sooner or Later Everyone Does»- Информация
Название: Знакомьтесь, Джо Блэк
Оригинальное название: Meet Joe Black
Год выхода: 1998
Жанр: Фэнтези, драма, мелодрама
Режиссер: Мартин Брест
Сценарий: Рон Осборн, Джефф Рино, Кевин Уэйд
Продюсер: Мартин Брест, Селия Д. Костас, Рональд Л. Швари
В ролях: Брэд Питт, Энтони Хопкинс, Клэр Форлани, Джейк Уэбер, Марша Гэй Харден, Джефри Тэмбор, Дэвид С. Ховард, Луис Келли-Миллер, Джанни Ст. Джон, Ричард Кларк
--Сюжет:
В жизни богатого и влиятельного газетного магната Уильяма Пэрриша появляется сама Смерть, принявшая обличье обворожительного молодого человека по имени Джо Блэк.
Смерть, уставшая от своих привычных обязанностей, предлагает Пэрришу необычное соглашение: магнат станет проводником Джо в мире живых, где тот планирует провести свой отпуск. По окончании каникул Смерть заберет Пэрриша с собой. С помощью Уильяма, загадочный и эксцентричный Джо начинает свое путешествие по бренной Земле.
Но происходит непредвиденное. Оказывается, что тело погибшего мужчины, которое Смерть выбрала для себя, принадлежало юноше, в которого была влюблена дочь Пэрриша.
- Страна: США
Продолжительность: 03:00:33

Файл
Кодек: MPEG4/ISO/AVC H.264
Формат: MKV
Качество: BDRip 720p | 60 fps
Видео: 1280 x 698 (1.834) | 59.940 fps | 11.0 Мбит/сек
Аудио 1: AC3 | 5.1 | 48 kHz | 448 kbps | 16 bit | Дубляж |
Аудио 2: AC3 | 5.1 | 48 kHz | 640 kbps | 16 bit | двухголосый закадровый «П. Гланц и И. Королёва» |
Аудио 3: AC3 | 2.0 | 48 kHz | 640 kbps | 16 bit | многоголосый закадровый «Blu-ray EUR» |
Аудио 4: AC3 | 5.1 | 48 kHz | 448 kbps | 16 bit | многоголосый закадровый «Позитив-Мультимедиа» |
Аудио 5: AC3 | 2.0 | 48 kHz | 192 kbps | 16 bit | одноголосый закадровый «А. Кашкин» |
Аудио 6: AC3 | 5.1 | 48 kHz | 448 kbps | 16 bit | одноголосый закадровый «М. Латышев» |
Аудио 7: AC3 | 5.1 | 48 kHz | 640 kbps | 16 bit | одноголосый закадровый «Ю. Живов» |
Аудио 8: AC3 | 2.0 | 48 kHz | 192 kbps | 16 bit | Украинский - многоголосый закадровый |
Аудио 9: AC3 | 5.1 | 48 kHz | 640 kbps | 16 bit | ENG |
Субтитры: Russian, English

MedifInfo

Видео
Идентификатор : 1
Формат : AVC
Формат/Информация : Advanced Video Codec
Профиль формата : High@L4.1
Параметр CABAC формата : Да
Параметр ReFrames формата : 8 кадров
Идентификатор кодека : V_MPEG4/ISO/AVC
Продолжительность : 3 ч. 0 м.
Битрейт : 11,0 Мбит/сек
Ширина : 1280 пикселей
Высота : 698 пикселей
Соотношение сторон : 1,85:1
Режим частоты кадров : Постоянный
Частота кадров : 59,880 кадров/сек
Частота кадров в оригинале : 59,940 кадров/сек
Цветовое пространство : YUV
Субдискретизация насыщенности : 4:2:0
Битовая глубина : 8 бит
Тип развёртки : Прогрессивная
Бит/(Пиксели*Кадры) : 0.206
Размер потока : 13,5 Гбайт (70%)
Заголовок : www.60-fps.org
Библиотека кодирования : x264 core 148 r2638 7599210
Настройки программы : cabac=1 / ref=8 / deblock=1:-3:-3 / analyse=0x3:0x133 / me=esa / subme=9 / psy=1 / psy_rd=1.00:0.15 / mixed_ref=1 / me_range=32 / chroma_me=1 / trellis=2 / 8x8dct=1 / cqm=0 / deadzone=21,11 / fast_pskip=1 / chroma_qp_offset=-3 / threads=12 / lookahead_threads=1 / sliced_threads=0 / nr=0 / decimate=1 / interlaced=0 / bluray_compat=0 / constrained_intra=0 / bframes=3 / b_pyramid=2 / b_adapt=2 / b_bias=0 / direct=3 / weightb=1 / open_gop=0 / weightp=2 / keyint=599 / keyint_min=59 / scenecut=40 / intra_refresh=0 / rc_lookahead=60 / rc=2pass / mbtree=1 / bitrate=10999 / ratetol=1.0 / qcomp=0.60 / qpmin=0 / qpmax=69 / qpstep=4 / cplxblur=20.0 / qblur=0.5 / vbv_maxrate=62500 / vbv_bufsize=78125 / nal_hrd=none / filler=0 / ip_ratio=1.40 / aq=1:1.00
Default : Да
Forced : Нет
Аудио #1
Идентификатор : 2
Формат : AC-3
Формат/Информация : Audio Coding 3
Расширение режима : CM (complete main)
Параметр Endianness формата : Big
Идентификатор кодека : A_AC3
Продолжительность : 3 ч. 0 м.
Вид битрейта : Постоянный
Битрейт : 448 Кбит/сек
Каналы : 6 каналов
Расположение каналов : Front: L C R, Side: L R, LFE
Частота : 48,0 КГц
Битовая глубина : 16 бит
Метод сжатия : С потерями
Задержка видео : 42 мс.
Размер потока : 579 Мбайт (3%)
Заголовок : Дубляж
Язык : Russian
Default : Да
Forced : Нет
Аудио #2
Идентификатор : 3
Формат : AC-3
Формат/Информация : Audio Coding 3
Расширение режима : CM (complete main)
Параметр Endianness формата : Big
Идентификатор кодека : A_AC3
Продолжительность : 3 ч. 0 м.
Вид битрейта : Постоянный
Битрейт : 640 Кбит/сек
Каналы : 6 каналов
Расположение каналов : Front: L C R, Side: L R, LFE
Частота : 48,0 КГц
Битовая глубина : 16 бит
Метод сжатия : С потерями
Размер потока : 827 Мбайт (4%)
Заголовок : двухголосый закадровый «П. Гланц и И. Королёва»
Default : Нет
Forced : Нет
Аудио #3
Идентификатор : 4
Формат : AC-3
Формат/Информация : Audio Coding 3
Расширение режима : CM (complete main)
Параметр Endianness формата : Big
Идентификатор кодека : A_AC3
Продолжительность : 3 ч. 0 м.
Вид битрейта : Постоянный
Битрейт : 640 Кбит/сек
Каналы : 2 канала
Расположение каналов : Front: L R
Частота : 48,0 КГц
Битовая глубина : 16 бит
Метод сжатия : С потерями
Размер потока : 827 Мбайт (4%)
Заголовок : многоголосый закадровый «Blu-ray EUR»
Default : Нет
Forced : Нет
Аудио #4
Идентификатор : 5
Формат : AC-3
Формат/Информация : Audio Coding 3
Расширение режима : CM (complete main)
Параметр Endianness формата : Big
Идентификатор кодека : A_AC3
Продолжительность : 3 ч. 0 м.
Вид битрейта : Постоянный
Битрейт : 448 Кбит/сек
Каналы : 6 каналов
Расположение каналов : Front: L C R, Side: L R, LFE
Частота : 48,0 КГц
Битовая глубина : 16 бит
Метод сжатия : С потерями
Размер потока : 579 Мбайт (3%)
Заголовок : многоголосый закадровый «Позитив-Мультимедиа»
Default : Нет
Forced : Нет
Аудио #5
Идентификатор : 6
Формат : AC-3
Формат/Информация : Audio Coding 3
Расширение режима : CM (complete main)
Параметр Endianness формата : Big
Идентификатор кодека : A_AC3
Продолжительность : 3 ч. 0 м.
Вид битрейта : Постоянный
Битрейт : 192 Кбит/сек
Каналы : 2 канала
Расположение каналов : Front: L R
Частота : 48,0 КГц
Битовая глубина : 16 бит
Метод сжатия : С потерями
Размер потока : 248 Мбайт (1%)
Заголовок : одноголосый закадровый «А. Кашкин»
Default : Нет
Forced : Нет
Аудио #6
Идентификатор : 7
Формат : AC-3
Формат/Информация : Audio Coding 3
Расширение режима : CM (complete main)
Параметр Endianness формата : Big
Идентификатор кодека : A_AC3
Продолжительность : 3 ч. 0 м.
Вид битрейта : Постоянный
Битрейт : 448 Кбит/сек
Каналы : 6 каналов
Расположение каналов : Front: L C R, Side: L R, LFE
Частота : 48,0 КГц
Битовая глубина : 16 бит
Метод сжатия : С потерями
Размер потока : 579 Мбайт (3%)
Заголовок : одноголосый закадровый «М. Латышев»
Default : Нет
Forced : Нет
Аудио #7
Идентификатор : 8
Формат : AC-3
Формат/Информация : Audio Coding 3
Расширение режима : CM (complete main)
Параметр Endianness формата : Big
Идентификатор кодека : A_AC3
Продолжительность : 3 ч. 0 м.
Вид битрейта : Постоянный
Битрейт : 640 Кбит/сек
Каналы : 6 каналов
Расположение каналов : Front: L C R, Side: L R, LFE
Частота : 48,0 КГц
Битовая глубина : 16 бит
Метод сжатия : С потерями
Размер потока : 827 Мбайт (4%)
Заголовок : одноголосый закадровый «Ю. Живов»
Default : Нет
Forced : Нет
Аудио #8
Идентификатор : 9
Формат : AC-3
Формат/Информация : Audio Coding 3
Расширение режима : CM (complete main)
Параметр Endianness формата : Big
Идентификатор кодека : A_AC3
Продолжительность : 3 ч. 0 м.
Вид битрейта : Постоянный
Битрейт : 192 Кбит/сек
Каналы : 2 канала
Расположение каналов : Front: L R
Частота : 48,0 КГц
Битовая глубина : 16 бит
Метод сжатия : С потерями
Размер потока : 248 Мбайт (1%)
Заголовок : Украинский - многоголосый закадровый
Default : Нет
Forced : Нет
Аудио #9
Идентификатор : 10
Формат : AC-3
Формат/Информация : Audio Coding 3
Расширение режима : CM (complete main)
Параметр Endianness формата : Big
Идентификатор кодека : A_AC3
Продолжительность : 3 ч. 0 м.
Вид битрейта : Постоянный
Битрейт : 640 Кбит/сек
Каналы : 6 каналов
Расположение каналов : Front: L C R, Side: L R, LFE
Частота : 48,0 КГц
Битовая глубина : 16 бит
Метод сжатия : С потерями
Размер потока : 827 Мбайт (4%)
Заголовок : Original
Язык : English
Default : Нет
Forced : Нет
Текст #1
Идентификатор : 11
Формат : UTF-8
Идентификатор кодека : S_TEXT/UTF8
Идентификатор кодека/Информация : UTF-8 Plain Text
Заголовок : RUS 1
Язык : Russian
Default : Нет
Forced : Нет
Текст #2
Идентификатор : 12
Формат : UTF-8
Идентификатор кодека : S_TEXT/UTF8
Идентификатор кодека/Информация : UTF-8 Plain Text
Заголовок : RUS 2
Язык : Russian
Default : Нет
Forced : Нет
Текст #3
Идентификатор : 13
Формат : UTF-8
Идентификатор кодека : S_TEXT/UTF8
Идентификатор кодека/Информация : UTF-8 Plain Text
Заголовок : ENG
Язык : English
Default : Нет
Forced : Нет
Меню
00:00:00.000 : en:A Voice in the Night
00:02:43.830 : en:Lots of Loose Ends
00:11:05.748 : en:Lightening Strikes
00:22:13.165 : en:Meet Joe Black
00:50:30.027 : en:Parrish's Friend
01:01:09.999 : en:The Hospital
01:11:29.910 : en:Family Dinner
01:25:20.990 : en:A Secret Meeting
01:32:19.450 : en:Set Your Heart...
01:37:13.285 : en:Behind My Back
01:44:29.721 : en:The First Time
02:05:46.914 : en:Darkest Secrets
02:17:29.658 : en:I'm Taking Her...
02:21:50.335 : en:You Know Who I Am
02:30:16.507 : en:Death and Taxes
02:36:23.499 : en:Hard to Let Go
02:49:02.340 : en:We've Got Time...
02:54:26.456 : en:End Titles

Релиз подготовлен 60 - fps

[60-fps.org].t1771.torrent
Торрент: Зарегистрирован [ 2016-02-03 15:46 ] · B7330679AE83E855CEE76EEC5D302992D96235AA

Скачать .torrent

Скачать

49 KB

Статус: проверено
Скачан: 23 раз
Поблагодарили:
Размер: 19,28 GB
 

[Цитировать]
иван ткач

Доброго дня суток!
Позвольте скачать.
Заранее благодарен.

[Цитировать]
Kryl

5987Доброго дня суток!
Позвольте скачать.
Заранее благодарен.
У меня файла уже нет .
Может кто станет на раздачу ,скачали 20 человек .
 
Показать сообщения:    

Текущее время: 22-Фев 16:26

Часовой пояс: UTC + 3


Вы не можете начинать темы
Вы не можете отвечать на сообщения
Вы не можете редактировать свои сообщения
Вы не можете удалять свои сообщения
Вы не можете голосовать в опросах
Вы не можете прикреплять файлы к сообщениям
Вы можете скачивать файлы