[Цитировать]
Kryl

Зеркала / Mirrors (2008)

«There Is Evil........On The Other Side»- Информация
Название: Зеркала
Оригинальное название: Mirrors
Год выхода: 2008
Жанр: ужасы, триллер, детектив
Режиссер: Александр Ажа
Сценарий: Александр Ажа, Грегори Левассёр, Шон-хо Ким
Продюсер: Грегори Левассёр, Александра Милчэн, Марк Штернберг
В ролях: Кифер Сазерленд, Паула Паттон, Камерон Бойс, Эрика Глюк, Эми Смарт, Мэри Бет Пейл, Джон Шрэпнел, Джейсон Флеминг, Тим Ахерн, Джулиан Гловер
--Сюжет:
Бен Карсон знавал времена и получше. Уже прошел почти год с тех пор как неуравновешенного детектива отстранили от работы в Полицейском управлении г. Нью-Йорка за убийство другого сотрудника спецслужбы, несчастный случай, который не только стоил ему работы, но и пробудил в нем тягу к алкоголю и агрессивность, из-за чего жена и дети отдалились от него, а сам он нашел пристанище на диване в квартире своей сестры в Куинс.
Потеряв надежду вернуться к нормальной жизни и воссоединиться с семьей, Карсон нанимается на работу ночным сторожем выгоревших руин универмага «Mayflower». То, что когда-то было символом процветания и роскоши, теперь медленно разрушается в темноте, как загнивающий корабль-призрак, разоренный гигантским пожаром, поглотившим множество невинных жизней.
Когда Карсон обходит дозором свои владения, обугленные развалины универмага, он начинает замечать что-то зловещее в декоративных зеркалах, украшающих стены «Mayflower». В огромных мерцающих стеклах отражаются страшные, потрясающие Карсона образы…
- - Страна: США, Румыния, Германия, Испания, Франция
Продолжительность: 01:51:22

Файл
Кодек: MPEG4/ISO/AVC H.264
Формат: MKV
Качество: BDRip-AVC 60 fps
Видео: 1024x424 (2.40:1) | 59.940 fps | 3.9 Мбит/сек
Аудио: AC3 | 5.1 | 48 kHz | 640 kbps | 16 bit | Дубляж |
Субтитры: русские (Полные), английские (Полные)

MedifInfo

Video
ID : 1
Format : AVC
Format/Info : Advanced Video Codec
Format profile : High@L4.1
Format settings, CABAC : Yes
Format settings, ReFrames : 4 frames
Codec ID : V_MPEG4/ISO/AVC
Duration : 1h 51mn
Bit rate : 3 900 Kbps
Width : 1 024 pixels
Height : 424 pixels
Display aspect ratio : 2.40:1
Frame rate : 59.940 fps
Color space : YUV
Chroma subsampling : 4:2:0
Bit depth : 8 bits
Scan type : Progressive
Bits/(Pixel*Frame) : 0.150
Stream size : 2.96 GiB (84%)
Title : Tiberiumsun69
Writing library : x264 core 146 r2538 121396c
Encoding settings : cabac=1 / ref=3 / deblock=1:0:0 / analyse=0x3:0x113 / me=umh / subme=9 / psy=1 / psy_rd=1.00:0.10 / mixed_ref=1 / me_range=32 / chroma_me=1 / trellis=2 / 8x8dct=1 / cqm=0 / deadzone=21,11 / fast_pskip=0 / chroma_qp_offset=-3 / threads=12 / lookahead_threads=3 / sliced_threads=0 / nr=0 / decimate=1 / interlaced=0 / bluray_compat=0 / constrained_intra=0 / bframes=16 / b_pyramid=2 / b_adapt=2 / b_bias=0 / direct=3 / weightb=1 / open_gop=0 / weightp=2 / keyint=600 / keyint_min=59 / scenecut=40 / intra_refresh=0 / rc_lookahead=40 / rc=2pass / mbtree=0 / bitrate=3900 / ratetol=1.0 / qcomp=0.60 / qpmin=0 / qpmax=69 / qpstep=4 / cplxblur=20.0 / qblur=0.5 / vbv_maxrate=14000 / vbv_bufsize=14000 / nal_hrd=none / filler=0 / ip_ratio=1.40 / pb_ratio=1.30 / aq=1:1.00
Language : English
Default : Yes
Forced : No
Audio
ID : 2
Format : AC-3
Format/Info : Audio Coding 3
Mode extension : CM (complete main)
Codec ID : A_AC3
Duration : 1h 51mn
Bit rate mode : Constant
Bit rate : 640 Kbps
Channel(s) : 6 channels
Channel positions : Front: L C R, Side: L R, LFE
Sampling rate : 48.0 KHz
Bit depth : 16 bits
Compression mode : Lossy
Stream size : 510 MiB (14%)
Title : Дубляж
Language : Russian
Default : Yes
Forced : No
Text #1
ID : 3
Format : UTF-8
Codec ID : S_TEXT/UTF8
Codec ID/Info : UTF-8 Plain Text
Title : Полные
Language : Russian
Default : No
Forced : No
Text #2
ID : 4
Format : UTF-8
Codec ID : S_TEXT/UTF8
Codec ID/Info : UTF-8 Plain Text
Title : Полные
Language : English
Default : No
Forced : No
Menu
00:00:00.000 : en:Bad Reflections
00:03:52.565 : en:Main Titles
00:05:45.094 : en:The Ex-Cop
00:07:26.237 : en:The Mayflower
00:11:20.513 : en:Another Chance
00:15:38.270 : en:The Open Door
00:21:44.469 : en:Man In The Mirror
00:23:34.454 : en:Reflections Of Hell
00:33:31.718 : en:Nightmares
00:36:26.267 : en:Package From Gary
00:39:24.278 : en:The Morgue
00:44:32.586 : en:Esseker
00:51:03.518 : en:Blood Bath
00:53:23.950 : en:The Mirrors Killed Them
00:56:35.934 : en:Break Down
01:01:58.131 : en:Behind The Wall
01:06:07.004 : en:Slaughterhouse
01:08:22.389 : en:The Esseker File
01:10:34.855 : en:Something In The Mirror
01:14:10.487 : en:Looking For Anna
01:19:32.559 : en:The Soul Collector
01:24:26.311 : en:House Of Mirrors
01:29:28.154 : en:He Wants To Play
01:32:21.619 : en:It's Waiting
01:36:07.303 : en:Repossessed
01:38:25.232 : en:The Demon Within
01:42:42.990 : en:Into The Mirror
01:47:23.144 : en:End Titles
01:51:21.966 : en:

Зеркала 2 / Mirrors 2 (2010)

«По ту сторону жизни темнота, которую вы и представить себе не могли»- Информация
Название: Зеркала 2
Оригинальное название: Mirrors 2
Год выхода: 2010
Жанр: ужасы, триллер, детектив
Режиссер: Виктор Гарсия
Сценарий: Шон-хо Ким, Мэтт Венн
Продюсер: Джон Портной, Ник Турлоу, Тодд Уильямс
В ролях: Ник Стал, Уильям Кэтт, Эммануэль Вожье, Лоуренс Тернер, Стефани Онор, Кристи Карлсон Романо, Джон Дэвис, Моника Акоста, Грант Кейс, Thomas C. Daniel
--Сюжет:
Макс, выздоравливающий после травмирующего несчастного случая, устраивается на работу ночным охранником. Он начинает видеть глазами молодой таинственной женщины, отражающейся в зеркале магазина.- - Страна: США
Продолжительность: 01:30:11

Файл
Кодек: MPEG4/ISO/AVC H.264
Формат: MKV
Качество: BDRip-AVC 60 fps
Видео: 1024x576 (16:9) | 59.940 fps | 5.3 Мбит/сек
Аудио: AC3 | 5.1 | 48 kHz | 384 kbps | 16 bit | Профессиональный (многоголосый) |
Субтитры: русские (Форсированные), русские (Полные), английские (Полные)

MedifInfo

Video
ID : 1
Format : AVC
Format/Info : Advanced Video Codec
Format profile : High@L4.1
Format settings, CABAC : Yes
Format settings, ReFrames : 4 frames
Codec ID : V_MPEG4/ISO/AVC
Duration : 1h 30mn
Bit rate : 5 300 Kbps
Width : 1 024 pixels
Height : 576 pixels
Display aspect ratio : 16:9
Frame rate : 59.940 fps
Color space : YUV
Chroma subsampling : 4:2:0
Bit depth : 8 bits
Scan type : Progressive
Bits/(Pixel*Frame) : 0.150
Stream size : 3.27 GiB (91%)
Title : Tiberiumsun69
Writing library : x264 core 146 r2538 121396c
Encoding settings : cabac=1 / ref=3 / deblock=1:0:0 / analyse=0x3:0x113 / me=umh / subme=9 / psy=1 / psy_rd=1.00:0.10 / mixed_ref=1 / me_range=32 / chroma_me=1 / trellis=2 / 8x8dct=1 / cqm=0 / deadzone=21,11 / fast_pskip=0 / chroma_qp_offset=-3 / threads=12 / lookahead_threads=3 / sliced_threads=0 / nr=0 / decimate=1 / interlaced=0 / bluray_compat=0 / constrained_intra=0 / bframes=16 / b_pyramid=2 / b_adapt=2 / b_bias=0 / direct=3 / weightb=1 / open_gop=0 / weightp=2 / keyint=600 / keyint_min=59 / scenecut=40 / intra_refresh=0 / rc_lookahead=40 / rc=2pass / mbtree=0 / bitrate=5300 / ratetol=1.0 / qcomp=0.60 / qpmin=0 / qpmax=69 / qpstep=4 / cplxblur=20.0 / qblur=0.5 / vbv_maxrate=14000 / vbv_bufsize=14000 / nal_hrd=none / filler=0 / ip_ratio=1.40 / pb_ratio=1.30 / aq=1:1.00
Language : English
Default : Yes
Forced : No
Audio
ID : 2
Format : AC-3
Format/Info : Audio Coding 3
Mode extension : CM (complete main)
Codec ID : A_AC3
Duration : 1h 30mn
Bit rate mode : Constant
Bit rate : 384 Kbps
Channel(s) : 6 channels
Channel positions : Front: L C R, Side: L R, LFE
Sampling rate : 48.0 KHz
Bit depth : 16 bits
Compression mode : Lossy
Stream size : 248 MiB (7%)
Title : Многоголосый, закадровый
Language : Russian
Default : Yes
Forced : No
Text #1
ID : 3
Format : UTF-8
Codec ID : S_TEXT/UTF8
Codec ID/Info : UTF-8 Plain Text
Title : Форсированные
Language : Russian
Default : Yes
Forced : No
Text #2
ID : 4
Format : UTF-8
Codec ID : S_TEXT/UTF8
Codec ID/Info : UTF-8 Plain Text
Title : Полные
Language : Russian
Default : No
Forced : No
Text #3
ID : 5
Format : UTF-8
Codec ID : S_TEXT/UTF8
Codec ID/Info : UTF-8 Plain Text
Title : Полные
Language : English
Default : No
Forced : No
Menu
00:00:00.000 : en:00:00:00.000
00:05:14.856 : en:00:05:14.856
00:08:33.972 : en:00:08:33.972
00:11:02.203 : en:00:11:02.203
00:15:04.570 : en:00:15:04.570
00:17:28.256 : en:00:17:28.256
00:21:02.761 : en:00:21:02.761
00:26:07.441 : en:00:26:07.441
00:31:38.146 : en:00:31:38.146
00:39:21.442 : en:00:39:21.442
00:41:36.077 : en:00:41:36.077
00:44:20.449 : en:00:44:20.449
00:48:13.390 : en:00:48:13.390
00:52:01.035 : en:00:52:01.035
00:58:26.962 : en:00:58:26.962
01:01:21.678 : en:01:01:21.678
01:04:28.907 : en:01:04:28.907
01:08:29.314 : en:01:08:29.314
01:12:44.235 : en:01:12:44.235
01:14:45.981 : en:01:14:45.981
01:17:41.615 : en:01:17:41.615
01:20:29.533 : en:01:20:29.533
01:23:16.783 : en:01:23:16.783
01:26:07.954 : en:01:26:07.954
 
Показать сообщения:    

Текущее время: 24-Май 09:05

Часовой пояс: UTC + 3


Вы не можете начинать темы
Вы не можете отвечать на сообщения
Вы не можете редактировать свои сообщения
Вы не можете удалять свои сообщения
Вы не можете голосовать в опросах
Вы не можете прикреплять файлы к сообщениям
Вы не можете скачивать файлы