[Цитировать]
mimok

Земля будущего / Tomorrowland (2015) BDRip 720p | 48fps«Представьте мир, где возможно всё»- Информация о фильме
Название: Земля будущего
Оригинальное название: Tomorrowland
Год выхода: 2015
Жанр: Фантастика, боевик, детектив, приключения, семейный
Режиссер: Брэд Бёрд
Продюсер: Брэд Бёрд, Джеффри Чернов, Дэймон Линделоф
В ролях: Бритт Робертсон, Джордж Клуни, Рэффи Кэссиди, Хью Лори, Тим МакГроу, Кэтрин Хан, Кигэн-Майкл Ки, Кристофер Бауэр, Томас Робинсон, Пирс Гэнон
Описание фильма:
Когда в руки к молодой девушке, жаждущей новых приключений, попадает загадочный предмет, открывающий доступ в параллельную реальность, она вынуждена обратиться за помощью к циничному гению-изобретателю Фрэнку. Кейси должна убедить бывшего вундеркинда раскрыть ей тайну загадочного места, находящегося вне привычной реальности, известного как Земля будущего, и убедить Фрэнка вернуться туда, откуда его однажды изгнали…
Страна: США, Испания
Студия: Walt Disney Pictures, Babieka
Продолжительность: 02:10:19
Перевод: Дублированный (iTunes)
Субтитры: Вшитые, отключаемые
Язык субтитров: Русский (Full), Английский (Full)

Дата мировой премьеры: 9 мая 2015
Дата российской премьеры: 21 мая 2015, «WDSSPR»
Дата выхода DVD/Blu-Ray релиза: 13 октября 2015, «Уолт Дисней Компани СНГ»
Файл
Формат: MKV
Кодек: MPEG-4 AVC/H.264
Качество: BDRip 720p
Видео: ~ 7452 Кбит/сек, 1280 x 592, 47.952 кадров/сек
Аудио: AC3 5.1, 48.0 KHz, 384 Кбит/сек - Русский

MediaInfo

Общее
Уникальный идентификатор : 212562313578147556493689553074734677107 (0x9FEA0331AE9CD8FF99E8B92A9B6ABC73)
Полное имя : D:\Торренты\Tomorrowland 48fps.mkv
Формат : Matroska
Версия формата : Version 2
Размер файла : 7,28 Гбайт
Продолжительность : 2 ч. 10 м.
Общий поток : 7995 Кбит/сек
Название фильма : Tomorrowland (2015) BDRemux 1080p
Дата кодирования : UTC 2015-09-27 09:18:10
Программа кодирования : mkvmerge v6.9.1 ('Blue Panther') 64bit built on Apr 18 2014 18:23:38
Библиотека кодирования : libebml v1.3.0 + libmatroska v1.4.1
Видео
Идентификатор : 1
Формат : AVC
Формат/Информация : Advanced Video Codec
Профиль формата : High@L4.1
Параметр CABAC формата : Да
Параметр ReFrames формата : 6 кадров
Идентификатор кодека : V_MPEG4/ISO/AVC
Продолжительность : 2 ч. 10 м.
Битрейт : 7452 Кбит/сек
Ширина : 1280 пикселей
Высота : 592 пикселя
Соотношение сторон : 2,2:1
Режим частоты кадров : Постоянный
Частота кадров : 47,952 кадров/сек
Цветовое пространство : YUV
Субдискретизация насыщенности : 4:2:0
Битовая глубина : 8 бит
Тип развёртки : Прогрессивная
Бит/(Пиксели*Кадры) : 0.205
Размер потока : 6,78 Гбайт (93%)
Заголовок : Release by mimok
Библиотека кодирования : x264 core 130 r2273 b3065e6
Настройки программы : cabac=1 / ref=6 / deblock=1:0:0 / analyse=0x3:0x133 / me=umh / subme=8 / psy=1 / psy_rd=1.00:0.15 / mixed_ref=1 / me_range=20 / chroma_me=1 / trellis=2 / 8x8dct=1 / cqm=0 / deadzone=21,11 / fast_pskip=0 / chroma_qp_offset=-3 / threads=6 / lookahead_threads=2 / sliced_threads=0 / nr=0 / decimate=0 / interlaced=0 / bluray_compat=0 / constrained_intra=0 / bframes=8 / b_pyramid=2 / b_adapt=2 / b_bias=0 / direct=1 / weightb=1 / open_gop=0 / weightp=2 / keyint=250 / keyint_min=25 / scenecut=40 / intra_refresh=0 / rc=crf / mbtree=0 / crf=18.0 / qcomp=0.63 / qpmin=10 / qpmax=51 / qpstep=4 / ip_ratio=1.40 / pb_ratio=1.30 / aq=1:1.20
Default : Да
Forced : Нет
Аудио
Идентификатор : 2
Формат : AC-3
Формат/Информация : Audio Coding 3
Расширение режима : CM (complete main)
Параметр Endianness формата : Big
Идентификатор кодека : A_AC3
Продолжительность : 2 ч. 10 м.
Вид битрейта : Постоянный
Битрейт : 384 Кбит/сек
Каналы : 6 каналов
Расположение каналов : Front: L C R, Side: L R, LFE
Частота : 48,0 КГц
Битовая глубина : 16 бит
Метод сжатия : С потерями
Размер потока : 358 Мбайт (5%)
Заголовок : iTunes
Язык : Russian
Default : Да
Forced : Нет
Текст #1
Идентификатор : 3
Формат : UTF-8
Идентификатор кодека : S_TEXT/UTF8
Идентификатор кодека/Информация : UTF-8 Plain Text
Заголовок : forse
Язык : Russian
Default : Да
Forced : Нет
Текст #2
Идентификатор : 4
Формат : UTF-8
Идентификатор кодека : S_TEXT/UTF8
Идентификатор кодека/Информация : UTF-8 Plain Text
Заголовок : full
Язык : Russian
Default : Нет
Forced : Нет
Текст #3
Идентификатор : 5
Формат : UTF-8
Идентификатор кодека : S_TEXT/UTF8
Идентификатор кодека/Информация : UTF-8 Plain Text
Заголовок : full
Язык : English
Default : Нет
Forced : Нет

Скринлист

Скриншоты:

Релиз подготовлен 60 - fps

[Цитировать]
seiblokhin

Шикарный фильм!

[Цитировать]
ENIGMA

Огромное Спасибо за качество!
 
Показать сообщения:    

Текущее время: 02-Дек 21:06

Часовой пояс: UTC + 3


Вы не можете начинать темы
Вы не можете отвечать на сообщения
Вы не можете редактировать свои сообщения
Вы не можете удалять свои сообщения
Вы не можете голосовать в опросах
Вы не можете прикреплять файлы к сообщениям
Вы не можете скачивать файлы