«Представьте мир, где возможно всё»- Информация
Название: Земля будущего
Оригинальное название: Tomorrowland
Год выхода: 2015
Жанр: Фантастика, боевик, детектив, приключения
Режиссер: Брэд Бёрд
Сценарий: Дэймон Линделоф, Брэд Бёрд, Джефф Дженсен
Продюсер: Брэд Бёрд, Джеффри Чернов, Дэймон Линделоф
В ролях: Бритт Робертсон, Джордж Клуни, Рэффи Кэссиди, Хью Лори, Тим МакГроу, Кэтрин Хан, Кигэн-Майкл Ки, Кристофер Бауэр, Томас Робинсон, Пирс Гэнон, Мэттью МакКоулл, Джуди Грир, Мэтт Андерсон, Майкл Джаккино, Д. Хэрлан Катшелл, Шило Нельсон, Ксанта Рэдли, Дэвид Найкл, Пол МакДжиллион, Пирс Виссер
--Сюжет:
Когда в руки к молодой девушке, жаждущей новых приключений, попадает загадочный предмет, открывающий доступ в параллельную реальность, она вынуждена обратиться за помощью к циничному гению-изобретателю Фрэнку. Кейси должна убедить бывшего вундеркинда раскрыть ей тайну загадочного места, находящегося вне привычной реальности, известного как Земля будущего, и убедить Фрэнка вернуться туда, откуда его однажды изгнали…- - Страна: США, Испания
Продолжительность: 02:10:03
-- Файл
Кодек: MPEG4/ISO/AVC H.264
Формат: MKV
Качество: BDRip-AVC
Видео: 1024x432 (2.35:1) | 59.940 fps | 3.8 Мбит/сек
Аудио: AC3 | 5.1 | 48 kHz | 384 kbps | 16 bit | Дублированный [iTunes] |
Субтитры: Русские, английские

MedifInfo

Video
ID : 1
Format : AVC
Format/Info : Advanced Video Codec
Format profile : High@L4.1
Format settings, CABAC : Yes
Format settings, ReFrames : 4 frames
Codec ID : V_MPEG4/ISO/AVC
Duration : 2h 10mn
Bit rate : 3 832 Kbps
Width : 1 024 pixels
Height : 432 pixels
Display aspect ratio : 2.35:1
Frame rate : 59.940 fps
Color space : YUV
Chroma subsampling : 4:2:0
Bit depth : 8 bits
Scan type : Progressive
Bits/(Pixel*Frame) : 0.145
Stream size : 3.41 GiB (89%)
Writing library : x264 core 146 r2538 121396c
Encoding settings : cabac=1 / ref=3 / deblock=1:0:0 / analyse=0x3:0x113 / me=umh / subme=9 / psy=1 / psy_rd=1.00:0.00 / mixed_ref=1 / me_range=24 / chroma_me=1 / trellis=2 / 8x8dct=1 / cqm=0 / deadzone=21,11 / fast_pskip=1 / chroma_qp_offset=-2 / threads=12 / lookahead_threads=3 / sliced_threads=0 / nr=0 / decimate=1 / interlaced=0 / bluray_compat=0 / constrained_intra=0 / bframes=16 / b_pyramid=2 / b_adapt=2 / b_bias=0 / direct=1 / weightb=1 / open_gop=0 / weightp=2 / keyint=250 / keyint_min=25 / scenecut=40 / intra_refresh=0 / rc=2pass / mbtree=0 / bitrate=3832 / ratetol=1.0 / qcomp=0.60 / qpmin=0 / qpmax=69 / qpstep=4 / cplxblur=20.0 / qblur=0.5 / ip_ratio=1.40 / pb_ratio=1.30 / aq=1:1.00
Language : English
Default : Yes
Forced : No
Audio
ID : 2
Format : AC-3
Format/Info : Audio Coding 3
Mode extension : CM (complete main)
Codec ID : A_AC3
Duration : 2h 10mn
Bit rate mode : Constant
Bit rate : 384 Kbps
Channel(s) : 6 channels
Channel positions : Front: L C R, Side: L R, LFE
Sampling rate : 48.0 KHz
Bit depth : 16 bits
Compression mode : Lossy
Stream size : 357 MiB (9%)
Title : iTunes
Language : Russian
Default : Yes
Forced : No
Text #1
ID : 3
Format : UTF-8
Codec ID : S_TEXT/UTF8
Codec ID/Info : UTF-8 Plain Text
Language : Russian
Default : Yes
Forced : No
Text #2
ID : 4
Format : UTF-8
Codec ID : S_TEXT/UTF8
Codec ID/Info : UTF-8 Plain Text
Language : Russian
Default : No
Forced : No
Text #3
ID : 5
Format : UTF-8
Codec ID : S_TEXT/UTF8
Codec ID/Info : UTF-8 Plain Text
Language : English
Default : No
Forced : No
Menu
00:00:00.000 : en:00:00:00.000
00:16:12.013 : en:00:16:12.013
00:21:56.565 : en:00:21:56.565
00:28:52.189 : en:00:28:52.189
00:37:37.046 : en:00:37:37.046
00:46:35.418 : en:00:46:35.418
00:55:01.048 : en:00:55:01.048
01:11:48.471 : en:01:11:48.471
01:19:18.087 : en:01:19:18.087
01:26:45.033 : en:01:26:45.033
01:30:57.702 : en:01:30:57.702
01:38:05.296 : en:01:38:05.296
01:49:50.501 : en:01:49:50.501
01:56:11.298 : en:01:56:11.298
02:01:26.946 : en:02:01:26.946
 
Показать сообщения:    

Текущее время: 08-Дек 19:05

Часовой пояс: UTC + 3


Вы не можете начинать темы
Вы не можете отвечать на сообщения
Вы не можете редактировать свои сообщения
Вы не можете удалять свои сообщения
Вы не можете голосовать в опросах
Вы не можете прикреплять файлы к сообщениям
Вы не можете скачивать файлы