[Цитировать]
Kryl

Зеленая миля / The Green Mile (1999) BDRip 1080p | 60 FPS-- Информация о фильме
Название: Зеленая миля
Оригинальное название: The Green Mile
Год выхода: 1999
Жанр: Драма
Режиссер: Фрэнк Дарабонт

О фильме:
Обвиненный в страшном преступлении, Джон Коффи оказывается в блоке смертников тюрьмы «Холодная гора». Вновь прибывший обладал поразительным ростом и был пугающе спокоен, что, впрочем, никак не влияло на отношение к нему начальника блока Пола Эджкомба, привыкшего исполнять приговор.
Гигант удивил всех позже, когда выяснилось, что он обладает невероятной магической силой…
-- --Страна: США
Студия: Castle Rock Entertainment, Darkwoods Productions, Warner Bros. Pictures
Продолжительность: 03:08:37
Перевод:

Профессиональный дублированный - "Мосфильм"
Профессиональный (одноголосый закадровый) - "Киномания"
Профессиональный (многоголосый закадровый) - RUS MVO
Авторский (одноголосый закадровый) - Гаврилов
Авторский (одноголосый закадровый) - Живов
Оригинальный - Английский--Файл
Кодек: V_MPEG4/ISO/AVC
Формат: MKV
Качество: BDRip
Видео: 1920 x 1080 (1.778) at 59.940 fps / Matroska at 30 Мбит/сек
Аудио 1 :АС3, 384 Kbps, 6ch - "Мосфильм"
Аудио 2 :АС3, 640 Kbps, 6ch - "Киномания"
Аудио 3 :АС3, 448 Kbps, 2ch - RUS MVO
Аудио 4 :АС3, 448 Kbps, 6ch - Гаврилов
Аудио 5 :АС3, 192 kbps, 2ch - Живов
Аудио 6 :АС3, 448 kbps, 6ch - Английский

MI

Writing application : mkvmerge v3.4.0 ('Rapunzel') сборка от May 15 2010 09:38:20
Writing library : libebml v0.8.0 + libmatroska v0.9.0

Video
ID : 1
Format : AVC
Format/Info : Advanced Video Codec
Format profile : High@L4.1
Format settings, CABAC : Yes
Format settings, ReFrames : 4 frames
Codec ID : V_MPEG4/ISO/AVC
Bit rate : 30.0 Mbps
Width : 1 920 pixels
Height : 1 080 pixels
Display aspect ratio : 16:9
Frame rate mode : Variable
Original frame rate : 59.940 fps
Color space : YUV
Chroma subsampling : 4:2:0
Bit depth : 8 bits
Scan type : Progressive
Bits/(Pixel*Frame) : 0.242
Title : релиз от kryl1411
Writing library : x264 core 130 r2273 b3065e6
Encoding settings : cabac=1 / ref=4 / deblock=1:-3:-3 / analyse=0x3:0x133 / me=esa / subme=10 / psy=1 / psy_rd=1.00:0.00 / mixed_ref=1 / me_range=35 / chroma_me=1 / trellis=2 / 8x8dct=1 / cqm=0 / deadzone=21,11 / fast_pskip=1 / chroma_qp_offset=-2 / threads=12 / lookahead_threads=2 / sliced_threads=0 / nr=0 / decimate=1 / interlaced=0 / bluray_compat=0 / constrained_intra=0 / bframes=8 / b_pyramid=2 / b_adapt=2 / b_bias=0 / direct=3 / weightb=1 / open_gop=0 / weightp=2 / keyint=599 / keyint_min=59 / scenecut=40 / intra_refresh=0 / rc_lookahead=60 / rc=2pass / mbtree=1 / bitrate=30023 / ratetol=1.0 / qcomp=0.60 / qpmin=0 / qpmax=69 / qpstep=4 / cplxblur=20.0 / qblur=0.5 / vbv_maxrate=62500 / vbv_bufsize=78125 / nal_hrd=none / ip_ratio=1.40 / aq=1:1.00
Language : English
Default : No
Forced : No
Audio #1
ID : 2
Format : AC-3
Format/Info : Audio Coding 3
Mode extension : CM (complete main)
Format settings, Endianness : Big
Codec ID : A_AC3
Duration : 3h 8mn
Bit rate mode : Constant
Bit rate : 384 Kbps
Channel(s) : 6 channels
Channel positions : Front: L C R, Side: L R, LFE
Sampling rate : 48.0 KHz
Bit depth : 16 bits
Compression mode : Lossy
Stream size : 518 MiB (1%)
Title : Дубляж "Мосфильм"
Default : No
Forced : No
Audio #2
ID : 3
Format : AC-3
Format/Info : Audio Coding 3
Mode extension : CM (complete main)
Format settings, Endianness : Big
Codec ID : A_AC3
Duration : 3h 8mn
Bit rate mode : Constant
Bit rate : 640 Kbps
Channel(s) : 6 channels
Channel positions : Front: L C R, Side: L R, LFE
Sampling rate : 48.0 KHz
Bit depth : 16 bits
Compression mode : Lossy
Stream size : 864 MiB (2%)
Title : Киномания
Default : Yes
Forced : No
Audio #3
ID : 4
Format : AC-3
Format/Info : Audio Coding 3
Mode extension : CM (complete main)
Format settings, Endianness : Big
Codec ID : A_AC3
Duration : 3h 8mn
Bit rate mode : Constant
Bit rate : 448 Kbps
Channel(s) : 2 channels
Channel positions : Front: L R
Sampling rate : 48.0 KHz
Bit depth : 16 bits
Compression mode : Lossy
Stream size : 605 MiB (1%)
Title : RUS MVO
Default : No
Forced : No
Audio #4
ID : 5
Format : AC-3
Format/Info : Audio Coding 3
Mode extension : CM (complete main)
Format settings, Endianness : Big
Codec ID : A_AC3
Duration : 3h 8mn
Bit rate mode : Constant
Bit rate : 448 Kbps
Channel(s) : 6 channels
Channel positions : Front: L C R, Side: L R, LFE
Sampling rate : 48.0 KHz
Bit depth : 16 bits
Compression mode : Lossy
Stream size : 605 MiB (1%)
Title : Гаврилов
Default : No
Forced : No
Audio #5
ID : 6
Format : AC-3
Format/Info : Audio Coding 3
Mode extension : CM (complete main)
Format settings, Endianness : Big
Codec ID : A_AC3
Duration : 3h 8mn
Bit rate mode : Constant
Bit rate : 192 Kbps
Channel(s) : 2 channels
Channel positions : Front: L R
Sampling rate : 48.0 KHz
Bit depth : 16 bits
Compression mode : Lossy
Stream size : 259 MiB (1%)
Title : Живов
Default : No
Forced : No
Audio #6
ID : 7
Format : AC-3
Format/Info : Audio Coding 3
Mode extension : CM (complete main)
Format settings, Endianness : Big
Codec ID : A_AC3
Duration : 3h 8mn
Bit rate mode : Constant
Bit rate : 448 Kbps
Channel(s) : 6 channels
Channel positions : Front: L C R, Side: L R, LFE
Sampling rate : 48.0 KHz
Bit depth : 16 bits
Compression mode : Lossy
Stream size : 605 MiB (1%)
Title : Английский
Default : No
Forced : No
[60-fps.org].t58.torrent
Торрент: Зарегистрирован [ 2014-10-16 22:28 ] · 6F60B09457D7444A482A58377059F8286CB1C0E4

Скачать .torrent

Скачать

108 KB

Статус: проверено
Скачан: 48 раз
Поблагодарили:
Размер: 42,92 GB
 
Похожие Темы

[Цитировать]
Krautch

Жалко весит много, так скачал бы Грущу

[Цитировать]
DIMMM52

5474Жалко весит много, так скачал бы Грущу
+1 Плачу

[Цитировать]
hlopeg

5474Жалко весит много, так скачал бы Грущу
+1
 
Показать сообщения:    

Текущее время: 24-Фев 02:24

Часовой пояс: UTC + 3


Вы не можете начинать темы
Вы не можете отвечать на сообщения
Вы не можете редактировать свои сообщения
Вы не можете удалять свои сообщения
Вы не можете голосовать в опросах
Вы не можете прикреплять файлы к сообщениям
Вы можете скачивать файлы