[Цитировать]
Kryl

Фильм «Now. Whatever you saw or did. Is no longer my concern. But let's be clear. It won't end well» Фильм- Информация
Название: Зелёная комната
Оригинальное название: Green Room
Год выхода: 2015
Жанр: Триллер, криминал
Режиссер: Джереми Солнье
Сценарий: Джереми Солнье
Продюсер: Нил Копп, Виктор Мойерс, Аниш Савджани
В ролях: Антон Ельчин, Джо Коул, Алиа Шокат, Каллум Тернер, Дэвид В. Томпсон, Марк Веббер, Мэйкон Блэр, Эрик Эдельштейн, Майкл Дрэйпер
--Сюжет:
Панк-группа из четырёх человек колесит по Америке на небольшом фургончике. Дают концерты, где придётся, и считают копейки. И тут выпадает возможность подзаработать на концерте в общине скинхедов чуть больше, чем обычно. Конечно же они соглашаются. Всё, вроде бы проходит неплохо, но после концерта они становятся свидетелями убийства в гримёрке с зелёными стенами.- Страна: США
Продолжительность: 01:35:02

Файл
Кодек: MPEG4/ISO/AVC H.264
Формат: MKV
Качество: BDRip 720p | 60 fps
Видео: 1280 x 534 (2.397) | 59.940 fps | 8.0 Мбит/сек
Аудио 1: AC3 | 5.1 | 48 kHz | 448 kbps | 16 bit | Авторский одноголосый (закадровый) | Дмитрий Есарев (без цензуры) |
Аудио 2: AC3 | 5.1 | 48 kHz | 448 kbps | 16 bit | Авторский одноголосый (закадровый) | Дмитрий Есарев (цензура) |
Аудио 3: AC3 | 5.1 | 48 kHz | 448 kbps | 16 bit | Eng |
Субтитры: Ru, Eng

MedifInfo

Видео
Идентификатор : 1
Формат : AVC
Формат/Информация : Advanced Video Codec
Профиль формата : High@L4.1
Параметр CABAC формата : Да
Параметр ReFrames формата : 3 кадра
Идентификатор кодека : V_MPEG4/ISO/AVC
Продолжительность : 1 ч. 35 м.
Вид битрейта : Переменный
Битрейт : 7644 Кбит/сек
Максимальный битрейт : 8000 Кбит/сек
Ширина : 1280 пикселей
Высота : 534 пикселя
Соотношение сторон : 2,40:1
Режим частоты кадров : Постоянный
Частота кадров : 59,880 кадров/сек
Частота кадров в оригинале : 59,940 кадров/сек
Стандарт вещания : PAL
Цветовое пространство : YUV
Субдискретизация насыщенности : 4:2:0
Битовая глубина : 8 бит
Тип развёртки : Прогрессивная
Бит/(Пиксели*Кадры) : 0.187
Размер потока : 5,07 Гбайт (83%)
Заголовок : www.60-fps.org
Язык : English
Default : Да
Forced : Нет
Основные цвета : BT.601 NTSC
Характеристики трансфера : BT.601
Коэффициенты матрицы : BT.601
colour_range : Limited
Аудио #1
Идентификатор : 2
Формат : AC-3
Формат/Информация : Audio Coding 3
Расширение режима : CM (complete main)
Параметр Endianness формата : Big
Идентификатор кодека : A_AC3
Продолжительность : 1 ч. 35 м.
Вид битрейта : Постоянный
Битрейт : 448 Кбит/сек
Каналы : 6 каналов
Расположение каналов : Front: L C R, Side: L R, LFE
Частота : 48,0 КГц
Битовая глубина : 16 бит
Метод сжатия : С потерями
Размер потока : 305 Мбайт (5%)
Заголовок : Дмитрий Есарев (без цензуры)
Язык : Russian
Default : Да
Forced : Нет
Аудио #2
Идентификатор : 3
Формат : AC-3
Формат/Информация : Audio Coding 3
Расширение режима : CM (complete main)
Параметр Endianness формата : Big
Идентификатор кодека : A_AC3
Продолжительность : 1 ч. 35 м.
Вид битрейта : Постоянный
Битрейт : 448 Кбит/сек
Каналы : 6 каналов
Расположение каналов : Front: L C R, Side: L R, LFE
Частота : 48,0 КГц
Битовая глубина : 16 бит
Метод сжатия : С потерями
Размер потока : 305 Мбайт (5%)
Заголовок : Дмитрий Есарев (цензура)
Язык : Russian
Default : Нет
Forced : Нет
Аудио #3
Идентификатор : 4
Формат : AC-3
Формат/Информация : Audio Coding 3
Расширение режима : CM (complete main)
Параметр Endianness формата : Big
Идентификатор кодека : A_AC3
Продолжительность : 1 ч. 35 м.
Вид битрейта : Постоянный
Битрейт : 448 Кбит/сек
Каналы : 6 каналов
Расположение каналов : Front: L C R, Side: L R, LFE
Частота : 48,0 КГц
Битовая глубина : 16 бит
Метод сжатия : С потерями
Размер потока : 305 Мбайт (5%)
Заголовок : eng
Язык : English
Default : Нет
Forced : Нет
DURATION : 01:33:07.713000000
NUMBER_OF_FRAMES : 1432
NUMBER_OF_BYTES : 39495
_STATISTICS_WRITING_APP : mkvmerge v7.6.0 ('Garden of Dreams') 32bit built on Feb 8 2015 12:51:39
_STATISTICS_WRITING_DATE_UTC : 2016-07-08 06:29:12
_STATISTICS_TAGS : BPS DURATION NUMBER_OF_FRAMES NUMBER_OF_BYTES
Текст #1
Идентификатор : 5
Формат : UTF-8
Идентификатор кодека : S_TEXT/UTF8
Идентификатор кодека/Информация : UTF-8 Plain Text
Заголовок : Full
Язык : Russian
Default : Нет
Forced : Нет
Текст #2
Идентификатор : 6
Формат : UTF-8
Идентификатор кодека : S_TEXT/UTF8
Идентификатор кодека/Информация : UTF-8 Plain Text
Заголовок : SDH
Язык : Russian
Default : Нет
Forced : Нет
Текст #3
Идентификатор : 7
Формат : UTF-8
Идентификатор кодека : S_TEXT/UTF8
Идентификатор кодека/Информация : UTF-8 Plain Text
Заголовок : Full
Язык : English
Default : Нет
Forced : Нет
Текст #4
Идентификатор : 8
Формат : UTF-8
Идентификатор кодека : S_TEXT/UTF8
Идентификатор кодека/Информация : UTF-8 Plain Text
Заголовок : SDH
Язык : English
Default : Нет
Forced : Нет
Меню
00:00:00.000 : en:Chapter 1
00:07:44.213 : en:Chapter 2
00:13:51.247 : en:Chapter 3
00:18:01.163 : en:Chapter 4
00:24:30.051 : en:Chapter 5
00:32:01.961 : en:Chapter 6
00:37:28.162 : en:Chapter 7
00:45:49.788 : en:Chapter 8
00:49:17.162 : en:Chapter 9
00:55:19.524 : en:Chapter 10
01:00:19.866 : en:Chapter 11
01:03:34.894 : en:Chapter 12
01:10:05.200 : en:Chapter 13
01:13:34.701 : en:Chapter 14
01:17:52.209 : en:Chapter 15
01:25:07.560 : en:Chapter 16

Релиз подготовлен 60 - fps

Топик был перенесен из форума Новинки КиноПроката 60 FPS в форум Зарубежные фильмы 60 FPS
Kryl

[Цитировать]
Slimpasha

Спасибо, по описанию в кинопоиске решил глянуть.
 
Показать сообщения:    

Текущее время: 29-Май 01:21

Часовой пояс: UTC + 3


Вы не можете начинать темы
Вы не можете отвечать на сообщения
Вы не можете редактировать свои сообщения
Вы не можете удалять свои сообщения
Вы не можете голосовать в опросах
Вы не можете прикреплять файлы к сообщениям
Вы не можете скачивать файлы