Топ Топиков за 24 часа
 
Джентльмены удачи (1971) BDRip-AVC | 60 fps Брат 2 (2000 г.) DVDRip | 60 fps Притяжение (2017) BDRip 1080p | 60 fps Операция «Ы» и другие приключения Шурика (1965) BDRip-AVC | 60 fps Собачье сердце (1988) HD 720p | 60 fps 28 панфиловцев (2016) BDRip 1080p | 60 fps Кавказская пленница, или Новые приключения Шурика (1966) BDRip-AVC | 60 fps Иван Васильевич меняет профессию (1973) BDRip-AVC | 60 fps Кин-дза-дза! (1986) BDRip 1080p | 60 fps Брат (1997) HDDVDRip 720p | 60fps Жмурки (2005) BDRip 720p | 60 fps Гагарин. Первый в космосе (2013) BDRip 1080p | 60 fps
  1. Стаж:
    1 год 3 месяца
    Сообщений:
    303
    Пол:
    Мужской
     
    Фильм «Отряд советских супергероев» Фильм- Информация
    Название: Защитники
    Оригинальное название: Защитники
    Год выхода: 2017
    Жанр: фантастика, фэнтези, боевик, приключения
    Режиссер: Сарик Андреасян
    Сценарий: Андрей Гаврилов
    Продюсер: Сарик Андреасян, Гевонд Андреасян, Владимир Поляков
    В ролях: [color=tealАнтон Пампушный,Санжар Мади,Себастьян Сисак,Алина Ланина,Станислав Ширин,Валерия Шкирандо,Вячеслав Разбегаев,Александр Семенов,Владимир Бутенко,Мила Максимова
    --Сюжет:
    Во времена Холодной войны секретная организация «Патриот» создала отряд супергероев, в который вошли участники из различных советских республик. Долгие годы героям приходилось скрывать свою сущность, однако в тяжелые для страны времена они вновь берутся за дело.-- Страна: Россия
    Продолжительность: 01:28:57

    Файл
    Кодек: MPEG4/ISO/AVC H.264/High@L5.2
    Формат: MKV
    Качество: BDRip 1080p | 60 fps
    Видео: 1920 x 808 (2.376) | 60.000 fps | 30,0 Мбит/сек
    Аудио 1: DTS| 5.1 | 48 kHz | 4310 Кбит/сек / 1509 Кбит/сек | 16 bit | Орегинал
    Субтитры:НЕТ

    MedifInfo

    Видео
    Идентификатор : 1
    Формат : AVC
    Формат/Информация : Advanced Video Codec
    Профиль формата : High@L5.2
    Параметр CABAC формата : Да
    Параметр ReFrames формата : 4 кадра
    Идентификатор кодека : V_MPEG4/ISO/AVC
    Продолжительность : 1 ч. 28 м.
    Битрейт : 30,0 Мбит/сек
    Ширина : 1920 пикселей
    Высота : 808 пикселей
    Соотношение сторон : 2,40:1
    Режим частоты кадров : Постоянный
    Частота кадров : 60,000 кадров/сек
    Цветовое пространство : YUV
    Субдискретизация насыщенности : 4:2:0
    Битовая глубина : 8 бит
    Тип развёртки : Прогрессивная
    Бит/(Пиксели*Кадры) : 0.322
    Размер потока : 18,6 Гбайт (87%)
    Библиотека кодирования : x264 core 146 r2538 121396c
    Настройки программы : cabac=1 / ref=3 / deblock=1:0:0 / analyse=0x3:0x113 / me=hex / subme=7 / psy=1 / psy_rd=1.00:0.00 / mixed_ref=1 / me_range=16 / chroma_me=1 / trellis=1 / 8x8dct=1 / cqm=0 / deadzone=21,11 / fast_pskip=1 / chroma_qp_offset=-2 / threads=12 / lookahead_threads=2 / sliced_threads=0 / nr=0 / decimate=1 / interlaced=0 / bluray_compat=0 / constrained_intra=0 / bframes=3 / b_pyramid=2 / b_adapt=1 / b_bias=0 / direct=3 / weightb=1 / open_gop=0 / weightp=2 / keyint=250 / keyint_min=25 / scenecut=40 / intra_refresh=0 / rc_lookahead=40 / rc=2pass / mbtree=1 / bitrate=30000 / ratetol=1.0 / qcomp=0.60 / qpmin=0 / qpmax=69 / qpstep=4 / cplxblur=20.0 / qblur=0.5 / ip_ratio=1.40 / aq=1:1.00
    Язык : English
    Default : Да
    Forced : Нет
    Аудио
    Идентификатор : 2
    Формат : DTS
    Формат/Информация : Digital Theater Systems
    Профиль формата : MA / Core
    Режим : 16
    Параметр Endianness формата : Big
    Идентификатор кодека : A_DTS
    Продолжительность : 1 ч. 28 м.
    Вид битрейта : Переменный / Постоянный
    Битрейт : 4310 Кбит/сек / 1509 Кбит/сек
    Каналы : 6 каналов
    Расположение каналов : Front: L C R, Side: L R, LFE
    Частота : 48,0 КГц
    Частота кадров : 93,750 кадра/сек (512 spf)
    Битовая глубина : 24 бит
    Метод сжатия : Без потерь / Lossy
    Размер потока : 2,68 Гбайт (13%)
    Язык : Russian
    Default : Да
    Forced : Нет
  2. Стаж:
    1 год 3 месяца
    Сообщений:
    303
    Пол:
    Мужской
     
    Может кому то и понравиться,КАЧЕСТВО старался сделать не плохим... Подмигиваю
    21-Окт-2017 02:01 (спустя 5 минут)
  3. Стаж:
    1 год 1 месяц
    Сообщений:
    77
    Пол:
    Мужской
     
    А супергерои тут такие же дебильные, как у Marvel? Злой
    21-Окт-2017 18:53 (спустя 16 часов)
  4. Стаж:
    3 года 2 месяца
    Сообщений:
    2116
    Пол:
    Мужской
     
    High@L5.2 Нет слов
    22-Окт-2017 00:55 (спустя 6 часов)
  5. Стаж:
    1 год 3 месяца
    Сообщений:
    303
    Пол:
    Мужской
     
    Kryl, решил поэксперементировать... Краснею
    22-Окт-2017 13:01 (спустя 12 часов)


Вы не можете начинать темы
Вы не можете отвечать на сообщения
Вы не можете редактировать свои сообщения
Вы не можете удалять свои сообщения
Вы не можете голосовать в опросах
Вы не можете прикреплять файлы к сообщениям
Вы не можете скачивать файлы