[Цитировать]
Kryl

Запределье / The Fall (2006) BDRip 720p | 60 FPS-- Информация о фильме
Название: Запределье
Оригинальное название: The Fall
Год выхода: 2006
Жанр: Фэнтези, приключения
Режиссер: Тарсем Синх / Tarsem Singh
В ролях: Катинка Унтару, Ли Пейс, Джастин Уоддэлл, Даниэль Кальтаджироне, Маркус Уэсли, Робин Смит, Джита Верма, Ким Уйленброк, Лео Билл, Эйден Литгоу и др.

О фильме:
Головорез Черный бандит, сбежавший африканский раб Отта Бенга, индийский мудрец, итальянский революционер Луихи и натуралист Чарльз Дарвин — герои сказок голливудского каскадера Роя, получившего травму после неудачного трюка на мосту. В лос-анджелесском госпитале его фантазии слушает пятилетняя девочка Александрия. Но однажды Рой узнает, что возлюбленная предала его, он больше не хочет жить и мечтает покончить с собой. В этот момент к нему снова приходит Александрия. Запредельная сказка продолжается…-- --Страна: США, Великобритания, Индия
Продолжительность: 01:57:07
Перевод: Профессиональный дублированный - Пифагор
--Файл
Кодек: V_MPEG4/ISO/AVC
Формат: MKV
Качество: BDRip
Видео: 1280 x 694 (1.844) at 59.880 fps / at 13.3 Мбит/сек
Аудио 1: AC-3 at 448 Кбит/сек | 6 каналов, 48,0 КГц - Пифагор
Аудио 2: AC-3 at 384 Кбит/сек | 6 каналов, 48,0 КГц - ENG
Субтитры: Русские (2 варианта), английские

MI

Видео
Идентификатор : 1
Формат : AVC
Формат/Информация : Advanced Video Codec
Профиль формата : High@L4.1
Параметр CABAC формата : Да
Параметр ReFrames формата : 8 кадров
Идентификатор кодека : V_MPEG4/ISO/AVC
Продолжительность : 1 ч. 57 м.
Битрейт : 13,3 Мбит/сек
Ширина : 1280 пикселей
Высота : 694 пикселя
Соотношение сторон : 1,85:1
Режим частоты кадров : Постоянный
Частота кадров : 59,880 кадров/сек
Частота кадров в оригинале : 59,940 кадров/сек
Цветовое пространство : YUV
Субдискретизация насыщенности : 4:2:0
Битовая глубина : 8 бит
Тип развёртки : Прогрессивная
Бит/(Пиксели*Кадры) : 0.250
Размер потока : 10,6 Гбайт (92%)
Заголовок : www.60-fps.org
Библиотека кодирования : x264 core 129 r2245 bc13772
Настройки программы : cabac=1 / ref=8 / deblock=1:-2:-2 / analyse=0x3:0x133 / me=esa / subme=9 / psy=1 / psy_rd=1.00:0.25 / mixed_ref=1 / me_range=32 / chroma_me=1 / trellis=2 / 8x8dct=1 / cqm=0 / deadzone=6,6 / fast_pskip=1 / chroma_qp_offset=-4 / threads=12 / lookahead_threads=2 / sliced_threads=0 / nr=0 / decimate=0 / interlaced=0 / bluray_compat=0 / constrained_intra=0 / bframes=3 / b_pyramid=2 / b_adapt=2 / b_bias=1 / direct=3 / weightb=1 / open_gop=0 / weightp=2 / keyint=599 / keyint_min=59 / scenecut=40 / intra_refresh=0 / rc_lookahead=60 / rc=2pass / mbtree=1 / bitrate=13292 / ratetol=1.0 / qcomp=0.80 / qpmin=0 / qpmax=69 / qpstep=4 / cplxblur=19.0 / qblur=0.0 / ip_ratio=1.10 / aq=1:0.50
Язык : English
Default : Нет
Forced : Нет
Аудио #1
Идентификатор : 2
Формат : AC-3
Формат/Информация : Audio Coding 3
Расширение режима : CM (complete main)
Параметр Endianness формата : Big
Идентификатор кодека : A_AC3
Продолжительность : 1 ч. 57 м.
Вид битрейта : Постоянный
Битрейт : 448 Кбит/сек
Каналы : 6 каналов
Расположение каналов : Front: L C R, Side: L R, LFE
Частота : 48,0 КГц
Битовая глубина : 16 бит
Метод сжатия : С потерями
Размер потока : 375 Мбайт (3%)
Заголовок : dub
Default : Нет
Forced : Нет
Аудио #2
Идентификатор : 3
Формат : AC-3
Формат/Информация : Audio Coding 3
Расширение режима : CM (complete main)
Параметр Endianness формата : Big
Идентификатор кодека : A_AC3
Продолжительность : 1 ч. 57 м.
Вид битрейта : Постоянный
Битрейт : 384 Кбит/сек
Каналы : 6 каналов
Расположение каналов : Front: L C R, Side: L R, LFE
Частота : 48,0 КГц
Битовая глубина : 16 бит
Метод сжатия : С потерями
Размер потока : 322 Мбайт (3%)
Заголовок : eng
Default : Да
Forced : Нет
Текст #1
Идентификатор : 4
Формат : UTF-8
Идентификатор кодека : S_TEXT/UTF8
Идентификатор кодека/Информация : UTF-8 Plain Text
Заголовок : ru
Default : Да
Forced : Нет
Текст #2
Идентификатор : 5
Формат : UTF-8
Идентификатор кодека : S_TEXT/UTF8
Идентификатор кодека/Информация : UTF-8 Plain Text
Заголовок : ru2
Default : Нет
Forced : Нет
Текст #3
Идентификатор : 6
Формат : UTF-8
Идентификатор кодека : S_TEXT/UTF8
Идентификатор кодека/Информация : UTF-8 Plain Text
Заголовок : eng
Default : Нет
Forced : Нет




Последний раз редактировалось: Kryl (2014-11-06 16:09), всего редактировалось 5 раз(а)

[Цитировать]
Ivan

Надо субтитры и английскую дорожку...
Девочка в начале фильма очень плохо говорит по-английски, но за съемки (которые специально для нее шли в логическом порядке от первой до последней сцены) ее английский улучшился. Я смотрел в дубляже и на английском - эффект очень разнится, оригинальный язык решает. Буду ждать прикручивания языка + сабов.

[Цитировать]
Kryl

Торрент обновлен ... Добавлены : английская дорога и субтитры ...

[Цитировать]
Ivan

Спасибо.

[Цитировать]
phantom-187

если возможно, поставьте на раздачу

[Цитировать]
Kryl

4551если возможно, поставьте на раздачу
Завтра раздам .
 
Показать сообщения:    

Текущее время: 09-Дек 22:21

Часовой пояс: UTC + 3


Вы не можете начинать темы
Вы не можете отвечать на сообщения
Вы не можете редактировать свои сообщения
Вы не можете удалять свои сообщения
Вы не можете голосовать в опросах
Вы не можете прикреплять файлы к сообщениям
Вы не можете скачивать файлы