[Цитировать]
BOT2

Заложница (Extended Cut)

-Название: Заложница
Оригинальное название: Taken
Год выпуска: 2007
Страна: Франция
Жанр: боевик, триллер
Продолжительность: 01:33:24
Перевод: Дубляж
Субтитры: русские (Форсированные), русские (Полные), английские (Полные)-Режиссер: Пьер Морель / Pierre Morel-В ролях: Лиам Нисон (Bryan Mills), Мэгги Грэйс (Kim), Фамке Янссен (Lenore), Оливье Рабурден (Jean-Claude), Лиленд Орсер (Sam), Ксандер Беркли (Stuart), Холли Вэлэнс (Sheerah), Джон Грайз (Casey), Дэвид Уоршофски (Bernie), Жерар Уоткинс (St-Clair), Кэти Кэссиди (Amanda), Марк Амио (Pharmacist)-Описание:
Молодую девушку похитили во время туристического отдыха. Её отец пускается в опасное приключение-спасение, чтобы вернуть дочь и наказать виновных лично.-Рейтинг
-Качество: BDRip-AVC 60fps
Формат: MKV
Видео кодек: AVC
Аудио кодек:AC3
Видео: AVC, 1024x440 (2.35:1), 4100 kbps, 59,940 fps, 0,152 bpp
Аудио: русский / AC3 / 5.1 / 48 kHz / 640 kbps / 16 bit |Дубляж|
Навигация по главам: есть- -

MI

General
Unique ID : 223749182452656562642622689703790220185 (0xA8548669CB039B4CACB5841ABBBD9399)
Complete name : A:\Фильмы\Заложница BDRip-AVC 60fps R.G. HD-Films\Заложница 1.mkv
Format : Matroska
Format version : Version 4 / Version 2
File size : 3.09 GiB
Duration : 1h 33mn
Overall bit rate : 4 741 Kbps
Movie name : Tiberiumsun69
Encoded date : UTC 2015-07-05 11:10:10
Writing application : mkvmerge v7.9.0 ('Birds') 64bit
Writing library : libebml v1.3.1 + libmatroska v1.4.2
Attachment : Yes
Video
ID : 1
Format : AVC
Format/Info : Advanced Video Codec
Format profile : High@L4.1
Format settings, CABAC : Yes
Format settings, ReFrames : 4 frames
Codec ID : V_MPEG4/ISO/AVC
Duration : 1h 33mn
Bit rate : 4 100 Kbps
Width : 1 024 pixels
Height : 440 pixels
Display aspect ratio : 2.35:1
Frame rate : 59.940 fps
Color space : YUV
Chroma subsampling : 4:2:0
Bit depth : 8 bits
Scan type : Progressive
Bits/(Pixel*Frame) : 0.152
Stream size : 2.61 GiB (85%)
Title : Tiberiumsun69
Writing library : x264 core 146 r2538 121396c
Encoding settings : cabac=1 / ref=4 / deblock=1:0:0 / analyse=0x3:0x113 / me=umh / subme=9 / psy=1 / psy_rd=1.00:0.10 / mixed_ref=1 / me_range=32 / chroma_me=1 / trellis=2 / 8x8dct=1 / cqm=0 / deadzone=21,11 / fast_pskip=0 / chroma_qp_offset=-3 / threads=12 / lookahead_threads=3 / sliced_threads=0 / nr=0 / decimate=1 / interlaced=0 / bluray_compat=0 / constrained_intra=0 / bframes=16 / b_pyramid=2 / b_adapt=2 / b_bias=0 / direct=3 / weightb=1 / open_gop=0 / weightp=2 / keyint=600 / keyint_min=59 / scenecut=40 / intra_refresh=0 / rc_lookahead=60 / rc=2pass / mbtree=1 / bitrate=4100 / ratetol=1.0 / qcomp=0.60 / qpmin=0 / qpmax=69 / qpstep=4 / cplxblur=20.0 / qblur=0.5 / vbv_maxrate=50000 / vbv_bufsize=62500 / nal_hrd=none / filler=0 / ip_ratio=1.40 / aq=1:1.00
Language : English
Default : Yes
Forced : No
Audio
ID : 2
Format : AC-3
Format/Info : Audio Coding 3
Mode extension : CM (complete main)
Codec ID : A_AC3
Duration : 1h 33mn
Bit rate mode : Constant
Bit rate : 640 Kbps
Channel(s) : 6 channels
Channel positions : Front: L C R, Side: L R, LFE
Sampling rate : 48.0 KHz
Bit depth : 16 bits
Compression mode : Lossy
Delay relative to video : 24ms
Stream size : 428 MiB (14%)
Title : Дубляж
Language : Russian
Default : Yes
Forced : No
Text #1
ID : 3
Format : UTF-8
Codec ID : S_TEXT/UTF8
Codec ID/Info : UTF-8 Plain Text
Title : Форсированные
Language : Russian
Default : Yes
Forced : No
Text #2
ID : 4
Format : UTF-8
Codec ID : S_TEXT/UTF8
Codec ID/Info : UTF-8 Plain Text
Title : Полные
Language : Russian
Default : No
Forced : No
Text #3
ID : 5
Format : UTF-8
Codec ID : S_TEXT/UTF8
Codec ID/Info : UTF-8 Plain Text
Title : Полные
Language : English
Default : No
Forced : No
Menu
00:00:00.000 : en:Her Real Father
00:04:43.950 : en:Red Meat, Red Wine
00:07:56.017 : en:The Diva
00:12:52.605 : en:Just Sign the Paper
00:16:49.217 : en:Rules and Conditions
00:20:24.306 : en:Ah, Paris
00:24:28.967 : en:Nightmare!
00:29:11.124 : en:96-Hour Window
00:32:26.278 : en:Searching the Apartment
00:35:53.318 : en:Stalking the Stalker
00:38:55.250 : en:Try Not to Make a Mess
00:41:34.283 : en:Porte de Clichy
00:45:47.828 : en:Makeshift Brothel
00:51:42.725 : en:Thanks, But Not Thanks
00:56:01.441 : en:Paradise
00:57:37.579 : en:Zeroing In
01:03:57.876 : en:Sold
01:06:56.763 : en:What a Pleasant Surprise
01:10:19.841 : en:Saving the Best For Last
01:15:08.671 : en:All Sales Are Final
01:18:22.656 : en:Racing the Boat
01:21:09.323 : en:Last Man Standing
01:26:02.949 : en:Welcome Home
01:28:04.654 : en:End Titles

Скриншоты

Заложница 2 (Unrated Cut)

-Название: Заложница 2
Оригинальное название: Taken 2
Год выпуска: 2012
Страна: Франция
Жанр: боевик, триллер
Продолжительность: 01:38:18
Перевод: Дубляж
Субтитры: русские (Форсированные), русские (Полные), английские (Полные)-Режиссер: Оливье Мегатон / Olivier Megaton-В ролях: Лиам Нисон (Bryan Mills), Мэгги Грэйс (Kim), Фамке Янссен (Lenore), Лиленд Орсер (Sam), Джон Грайз (Casey), Д.Б. Суини (Bernie), Люк Граймс (Jamie), Раде Шербеджия (Murad Krasniqi), Кеворк Маликян (Inspector Durmaz), Ален Фиглаж (Suko), Франк Альварес (Car Wash Attendant), Мурат Тунселли (Custom Officer Albania)-Описание:
Брайану Миллсу придется расхлебывать последствия своих действий. Спасая свою дочь, он убил главаря банды, у которого - сюрприз! - есть отец по имени Мурад. Мурад жаждет отмщения, и описывается как человек, отдающий приказы, но сам никогда никому не подчиняющийся. Мурад берет в заложники Миллса с супругой, и тут уже Ким Миллс нужно будет спасать своих родителей.-Рейтинг
-Качество: BDRip-AVC
Формат: MKV
Видео кодек: AVC
Аудио кодек:AC3
Видео: AVC, 1024x432 (2.35:1), 4000 kbps, 59,940 fps, 0,151 bpp
Аудио: русский / AC3 / 5.1 / 48 kHz / 640 kbps / 16 bit |Дубляж + Форсированные субтитры на непереведенные места|
Навигация по главам: есть- -

MI

General
Unique ID : 194460381325770474916435368614575774291 (0x924BB507138A2A5483FF9E6DF2349A53)
Complete name : A:\Фильмы\Заложница BDRip-AVC 60fps R.G. HD-Films\Заложница 2.mkv
Format : Matroska
Format version : Version 4 / Version 2
File size : 3.19 GiB
Duration : 1h 38mn
Overall bit rate : 4 642 Kbps
Movie name : Tiberiumsun69
Encoded date : UTC 2015-07-05 12:49:25
Writing application : mkvmerge v7.9.0 ('Birds') 64bit
Writing library : libebml v1.3.1 + libmatroska v1.4.2
Attachment : Yes
Video
ID : 1
Format : AVC
Format/Info : Advanced Video Codec
Format profile : High@L4.1
Format settings, CABAC : Yes
Format settings, ReFrames : 4 frames
Codec ID : V_MPEG4/ISO/AVC
Duration : 1h 38mn
Bit rate : 4 000 Kbps
Width : 1 024 pixels
Height : 432 pixels
Display aspect ratio : 2.35:1
Frame rate : 59.940 fps
Color space : YUV
Chroma subsampling : 4:2:0
Bit depth : 8 bits
Scan type : Progressive
Bits/(Pixel*Frame) : 0.151
Stream size : 2.68 GiB (84%)
Title : Tiberiumsun69
Writing library : x264 core 146 r2538 121396c
Encoding settings : cabac=1 / ref=4 / deblock=1:0:0 / analyse=0x3:0x113 / me=umh / subme=9 / psy=1 / psy_rd=1.00:0.10 / mixed_ref=1 / me_range=32 / chroma_me=1 / trellis=2 / 8x8dct=1 / cqm=0 / deadzone=21,11 / fast_pskip=0 / chroma_qp_offset=-3 / threads=12 / lookahead_threads=3 / sliced_threads=0 / nr=0 / decimate=1 / interlaced=0 / bluray_compat=0 / constrained_intra=0 / bframes=16 / b_pyramid=2 / b_adapt=2 / b_bias=0 / direct=3 / weightb=1 / open_gop=0 / weightp=2 / keyint=600 / keyint_min=59 / scenecut=40 / intra_refresh=0 / rc_lookahead=60 / rc=2pass / mbtree=1 / bitrate=4000 / ratetol=1.0 / qcomp=0.60 / qpmin=0 / qpmax=69 / qpstep=4 / cplxblur=20.0 / qblur=0.5 / vbv_maxrate=50000 / vbv_bufsize=62500 / nal_hrd=none / filler=0 / ip_ratio=1.40 / aq=1:1.00
Language : English
Default : Yes
Forced : No
Audio
ID : 2
Format : AC-3
Format/Info : Audio Coding 3
Mode extension : CM (complete main)
Codec ID : A_AC3
Duration : 1h 38mn
Bit rate mode : Constant
Bit rate : 640 Kbps
Channel(s) : 6 channels
Channel positions : Front: L C R, Side: L R, LFE
Sampling rate : 48.0 KHz
Bit depth : 16 bits
Compression mode : Lossy
Stream size : 450 MiB (14%)
Title : Дубляж
Language : Russian
Default : Yes
Forced : No
Text #1
ID : 3
Format : UTF-8
Codec ID : S_TEXT/UTF8
Codec ID/Info : UTF-8 Plain Text
Title : Форсированные
Language : Russian
Default : Yes
Forced : No
Text #2
ID : 4
Format : UTF-8
Codec ID : S_TEXT/UTF8
Codec ID/Info : UTF-8 Plain Text
Title : Полные
Language : Russian
Default : No
Forced : No
Text #3
ID : 5
Format : UTF-8
Codec ID : S_TEXT/UTF8
Codec ID/Info : UTF-8 Plain Text
Title : Полные
Language : English
Default : No
Forced : No
Menu
00:00:00.000 : en:en:Her Real Father (Main Titles)
00:04:18.300 : en:en:Red Meat, Red Wine
00:07:24.694 : en:en:The Diva
00:12:00.219 : en:en:Just Sign the Paper
00:14:37.418 : en:en:Rules and Conditions
00:17:53.698 : en:en:Ah, Paris
00:21:34.835 : en:en:Nightmare!
00:24:44.149 : en:en:96-Hour Window
00:27:48.792 : en:en:Searching the Apartment
00:33:00.812 : en:en:Stalking the Stalker
00:37:41.134 : en:en:Try Not to Make a Mess
00:41:00.750 : en:en:Porte De Clichy
00:44:25.079 : en:en:Makeshift Brothel
00:48:50.427 : en:en:Thanks, but No Thanks
00:54:17.129 : en:en:Paradise
01:00:45.517 : en:en:Zeroing In
01:04:28.281 : en:en:Sold
01:08:47.915 : en:en:What a Pleasant Surprise
01:11:13.603 : en:en:Saving the Best for Last
01:15:43.956 : en:en:All Sales Are Final
01:21:35.057 : en:en:Racing the Boat
01:25:39.009 : en:en:Last Man Standing
01:29:17.727 : en:en:Welcome Home
01:32:13.736 : en:en:End Titles

Скриншоты

Заложница 3 (Extended Cut)

-Название: Заложница 3
Оригинальное название: Taken 3
Год выпуска: 2014
Страна: Франция
Жанр: боевик, триллер
Продолжительность: 01:55:18
Перевод: Дубляж
Субтитры: русские (Полные), английские (Полные)-Режиссер: Оливье Мегатон / Olivier Megaton-В ролях: Лиам Нисон (Bryan Mills), Мэгги Грэйс (Kim Mills), Форест Уитакер (Franck Dotzler), Сэм Спруэлл (Oleg Malankov), Фамке Янссен (Lenore St. John), Дюгрей Скотт (Stuart St. John), Дон Харви (Garcia), Дилан Бруно (Smith), Лиленд Орсер (Sam (Gilroy)), Дэвид Уоршофски (Bernie (Harris)), Джон Грайз ((Mark), Casey), Джонни Уэстон (Jimy)-Описание:
Жизнь бывшего правительственного агента Брайана Миллса рушится, когда его обвиняют в убийстве, которого он не совершал. Преследуемый опытным инспектором полиции, Миллс пытается отследить настоящего убийцу...-Рейтинг
-Качество: BDRip-AVC 60fps
Формат: MKV
Видео кодек: AVC
Аудио кодек:AC3
Видео: AVC, 1024x432 (2.35:1), 4000 kbps, 59,940 fps, 0,151 bpp
Аудио: русский / AC3 / 5.1 / 48 kHz / 640 kbps / 16 bit |Дубляж|
Навигация по главам: есть- -

MI

General
Unique ID : 238435238129397780782273922744724680583 (0xB360F4DC98F646DF940DE8CDAF2EEF87)
Complete name : A:\Фильмы\Заложница BDRip-AVC 60fps R.G. HD-Films\Заложница 3.mkv
Format : Matroska
Format version : Version 4 / Version 2
File size : 3.74 GiB
Duration : 1h 55mn
Overall bit rate : 4 644 Kbps
Movie name : Tiberiumsun69
Encoded date : UTC 2015-07-05 12:23:35
Writing application : mkvmerge v7.9.0 ('Birds') 64bit
Writing library : libebml v1.3.1 + libmatroska v1.4.2
Attachment : Yes
Video
ID : 1
Format : AVC
Format/Info : Advanced Video Codec
Format profile : High@L4.1
Format settings, CABAC : Yes
Format settings, ReFrames : 4 frames
Codec ID : V_MPEG4/ISO/AVC
Duration : 1h 55mn
Bit rate : 4 000 Kbps
Width : 1 024 pixels
Height : 432 pixels
Display aspect ratio : 2.35:1
Frame rate : 59.940 fps
Color space : YUV
Chroma subsampling : 4:2:0
Bit depth : 8 bits
Scan type : Progressive
Bits/(Pixel*Frame) : 0.151
Stream size : 3.15 GiB (84%)
Title : Tiberiumsun69
Writing library : x264 core 146 r2538 121396c
Encoding settings : cabac=1 / ref=4 / deblock=1:0:0 / analyse=0x3:0x113 / me=umh / subme=9 / psy=1 / psy_rd=1.00:0.10 / mixed_ref=1 / me_range=32 / chroma_me=1 / trellis=2 / 8x8dct=1 / cqm=0 / deadzone=21,11 / fast_pskip=0 / chroma_qp_offset=-3 / threads=12 / lookahead_threads=3 / sliced_threads=0 / nr=0 / decimate=1 / interlaced=0 / bluray_compat=0 / constrained_intra=0 / bframes=16 / b_pyramid=2 / b_adapt=2 / b_bias=0 / direct=3 / weightb=1 / open_gop=0 / weightp=2 / keyint=600 / keyint_min=59 / scenecut=40 / intra_refresh=0 / rc_lookahead=60 / rc=2pass / mbtree=1 / bitrate=4000 / ratetol=1.0 / qcomp=0.60 / qpmin=0 / qpmax=69 / qpstep=4 / cplxblur=20.0 / qblur=0.5 / vbv_maxrate=50000 / vbv_bufsize=62500 / nal_hrd=none / filler=0 / ip_ratio=1.40 / aq=1:1.00
Language : English
Default : Yes
Forced : No
Audio
ID : 2
Format : AC-3
Format/Info : Audio Coding 3
Mode extension : CM (complete main)
Codec ID : A_AC3
Duration : 1h 55mn
Bit rate mode : Constant
Bit rate : 640 Kbps
Channel(s) : 6 channels
Channel positions : Front: L C R, Side: L R, LFE
Sampling rate : 48.0 KHz
Bit depth : 16 bits
Compression mode : Lossy
Stream size : 528 MiB (14%)
Title : Дубляж
Language : Russian
Default : Yes
Forced : No
Text #1
ID : 3
Format : UTF-8
Codec ID : S_TEXT/UTF8
Codec ID/Info : UTF-8 Plain Text
Title : Полные
Language : Russian
Default : No
Forced : No
Text #2
ID : 4
Format : UTF-8
Codec ID : S_TEXT/UTF8
Codec ID/Info : UTF-8 Plain Text
Title : Полные
Language : English
Default : No
Forced : No
Menu
00:00:00.000 : :Chapter 01
00:04:18.091 : :Chapter 02
00:10:12.820 : :Chapter 03
00:13:20.466 : :Chapter 04
00:15:44.985 : :Chapter 05
00:18:25.354 : :Chapter 06
00:23:18.813 : :Chapter 07
00:25:49.255 : :Chapter 08
00:27:34.861 : :Chapter 09
00:30:21.402 : :Chapter 10
00:33:01.145 : :Chapter 11
00:36:00.282 : :Chapter 12
00:38:17.795 : :Chapter 13
00:43:08.419 : :Chapter 14
00:46:46.428 : :Chapter 15
00:50:21.142 : :Chapter 16
00:55:00.338 : :Chapter 17
00:59:07.293 : :Chapter 18
01:02:49.640 : :Chapter 19
01:05:56.952 : :Chapter 20
01:07:13.862 : :Chapter 21
01:09:59.027 : :Chapter 22
01:14:26.086 : :Chapter 23
01:18:10.185 : :Chapter 24
01:22:19.517 : :Chapter 25
01:25:26.162 : :Chapter 26
01:29:38.205 : :Chapter 27
01:33:24.473 : :Chapter 28
01:37:07.571 : :Chapter 29
01:40:37.656 : :Chapter 30
01:46:48.443 : :Chapter 31
01:49:42.992 : :Chapter 32
01:55:18.244 : :Chapter 33

Скриншоты

[Цитировать]
toolmakerr

Спасибо!

[Цитировать]
BOT2

Пожалуйста

[Цитировать]
zizu

Большое спасибо Улыбаюсь

[Цитировать]
RogerJunior

Супер! все супер!! на твердейшую 10-ку! спасибо за релиз,качество и трилогию в 60 фпс! Привет
 
Показать сообщения:    

Текущее время: 28-Май 00:21

Часовой пояс: UTC + 3


Вы не можете начинать темы
Вы не можете отвечать на сообщения
Вы не можете редактировать свои сообщения
Вы не можете удалять свои сообщения
Вы не можете голосовать в опросах
Вы не можете прикреплять файлы к сообщениям
Вы не можете скачивать файлы