«Как остановить убийцу, если он уже за решеткой?»- Информация
Название: Законопослушный гражданин
Оригинальное название: Law Abiding Citizen
Год выхода: 2009
Жанр: Триллер, драма, криминал
Режиссер: Ф. Гэри Грей
Сценарий: Курт Уиммер
Продюсер: Джерард Батлер, Лукас Фостер, Марк Гилл
В ролях: Джерард Батлер, Майкл Гэмбон, Лесли Бибб, Джейми Фокс, Джош Стюарт, Реджина Холл, Брюс МакГил, Кристиан Штолте, Виола Дэвис, Колм Мини
--Сюжет:
Окружной прокурор пошёл на сделку с преступниками и освободил их из тюрьмы. Тогда человек, чья жена и ребёнок погибли от рук убийц решает отомстить прокурору, совершив правосудие самостоятельно. Его ловят и сажают в тюрьму, но он неожиданно ставит ультиматум: он будет убивать, не выходя из-за решетки, если его требования не будут выполнены. Смешное заявление, но вскоре люди правда начинают гибнуть…- - Страна: США
Продолжительность: 01:58:06

Файл
Кодек: MPEG4/ISO/AVC H.264
Формат: MKV
Качество: BDRip-AVC | 60 fps
Видео: 1024x424 (2.40:1) | 59.940 fps | 3.9 Мбит/сек
Аудио: AC3 | 5.1 | 48 kHz | 448 kbps | 16 bit | Дубляж + MVO Киномания на реж. вставки |
Субтитры: Russian, English

MedifInfo

Video
ID : 1
Format : AVC
Format/Info : Advanced Video Codec
Format profile : High@L4.1
Format settings, CABAC : Yes
Format settings, ReFrames : 4 frames
Codec ID : V_MPEG4/ISO/AVC
Duration : 1h 58mn
Bit rate : 3 900 Kbps
Width : 1 024 pixels
Height : 424 pixels
Display aspect ratio : 2.40:1
Frame rate : 59.940 fps
Color space : YUV
Chroma subsampling : 4:2:0
Bit depth : 8 bits
Scan type : Progressive
Bits/(Pixel*Frame) : 0.150
Stream size : 3.15 GiB (88%)
Title : Tiberiumsun69
Writing library : x264 core 146 r2538 121396c
Encoding settings : cabac=1 / ref=3 / deblock=1:0:0 / analyse=0x3:0x113 / me=umh / subme=9 / psy=1 / psy_rd=1.00:0.10 / mixed_ref=1 / me_range=32 / chroma_me=1 / trellis=2 / 8x8dct=1 / cqm=0 / deadzone=21,11 / fast_pskip=0 / chroma_qp_offset=-3 / threads=12 / lookahead_threads=3 / sliced_threads=0 / nr=0 / decimate=1 / interlaced=0 / bluray_compat=0 / constrained_intra=0 / bframes=16 / b_pyramid=2 / b_adapt=2 / b_bias=0 / direct=3 / weightb=1 / open_gop=0 / weightp=2 / keyint=250 / keyint_min=25 / scenecut=40 / intra_refresh=0 / rc_lookahead=40 / rc=2pass / mbtree=1 / bitrate=3900 / ratetol=1.0 / qcomp=0.60 / qpmin=0 / qpmax=69 / qpstep=4 / cplxblur=20.0 / qblur=0.5 / vbv_maxrate=14000 / vbv_bufsize=14000 / nal_hrd=none / filler=0 / ip_ratio=1.40 / aq=1:1.00
Language : English
Default : Yes
Forced : No
Audio
ID : 2
Format : AC-3
Format/Info : Audio Coding 3
Mode extension : CM (complete main)
Codec ID : A_AC3
Duration : 1h 58mn
Bit rate mode : Constant
Bit rate : 448 Kbps
Channel(s) : 6 channels
Channel positions : Front: L C R, Side: L R, LFE
Sampling rate : 48.0 KHz
Bit depth : 16 bits
Compression mode : Lossy
Stream size : 378 MiB (10%)
Title : Дубляж + MVO на реж. вставки
Language : Russian
Default : No
Forced : No
Text #1
ID : 3
Format : UTF-8
Codec ID : S_TEXT/UTF8
Codec ID/Info : UTF-8 Plain Text
Title : Полные
Language : Russian
Default : No
Forced : No
Text #2
ID : 4
Format : UTF-8
Codec ID : S_TEXT/UTF8
Codec ID/Info : UTF-8 Plain Text
Title : Полные
Language : English
Default : No
Forced : No
Menu
00:00:00.000 : en:Chapter 1
00:05:00.000 : en:Chapter 2
00:10:00.000 : en:Chapter 3
00:15:00.000 : en:Chapter 4
00:20:00.000 : en:Chapter 5
00:25:00.000 : en:Chapter 6
00:30:00.000 : en:Chapter 7
00:35:00.000 : en:Chapter 8
00:40:00.000 : en:Chapter 9
00:45:00.000 : en:Chapter 10
00:50:00.000 : en:Chapter 11
00:55:00.000 : en:Chapter 12
01:00:00.000 : en:Chapter 13
01:05:00.000 : en:Chapter 14
01:10:00.000 : en:Chapter 15
01:15:00.000 : en:Chapter 16
01:20:00.000 : en:Chapter 17
01:25:00.000 : en:Chapter 18
01:30:00.000 : en:Chapter 19
01:35:00.000 : en:Chapter 20
01:40:00.000 : en:Chapter 21
01:45:00.000 : en:Chapter 22
01:50:00.000 : en:Chapter 23
01:55:00.000 : en:Chapter 24

[Цитировать]
bassurm

бомба кино

[Цитировать]
DIMMM52

bassurm,
+
Бомба

[Цитировать]
asimmramzan

Поцелуй THANKSSSSS

[Цитировать]
rkolya

Сообщение появиться после проверки модератором
 
Показать сообщения:    

Текущее время: 24-Май 07:18

Часовой пояс: UTC + 3


Вы не можете начинать темы
Вы не можете отвечать на сообщения
Вы не можете редактировать свои сообщения
Вы не можете удалять свои сообщения
Вы не можете голосовать в опросах
Вы не можете прикреплять файлы к сообщениям
Вы не можете скачивать файлы