Топ Топиков за 24 часа
 
Живые Пейзажи. Красивейшие Уголки Земли / Living Landscapes. The World's Most Beautiful Places (2006) BDRip 720p | 60 fps Планета Земля 2 / Planet Earth II (2016) BDRip 1080p | 60 fps Голубая бездна (Глубина) / Deep Blue (2003) BDRip 1080p | 60 fps Пейзажи времени / TimeScapes (2012) BDRip 1080p | 60 fps Заколдованное королевство / Enchanted Kingdom (2013) BDRip 720p | 60fps Музыкальный камин / HDScape: Fireplace - Visions Of Tranquility (2008) BDRip 1080p | 60 fps
  1. Стаж:
    3 года 1 месяц
    Сообщений:
    311
    Пол:
    Мужской
     
    Заколдованное королевство / Enchanted Kingdom (2013) BDRip 720p | 60fps«....»- Информация о фильме
    Название: Заколдованное королевство 3D
    Оригинальное название: Enchanted Kingdom 3D
    Год выхода: 2013
    Жанр: Документальный
    Режиссер: Патрик Моррис, Нил Найтингейл
    В ролях: Идрис Эльба, Хейли Джоэнн Бэйкон, India Dale-Hill
    Описание фильма:
    Документальный фильм о дикой природе Африки, снятый за 500 дней с применением новейших инновационных 3D технологий, является, самым амбициозным и зрелищным проектом о живой природе известнейшего мирового производителя фильмов об истории Земли — компании BBC.
    Страна: Великобритания
    Студия: BBC Earth Productions (Africa), Reliance Big Entertainment
    Продолжительность: 01:27:19
    Перевод: Одноголосый закадровый (студия «Омикрон»)
    Субтитры: Отсутствуют

    Дата мировой премьеры: 5 декабря 2013
    Файл
    Формат: MKV
    Кодек: MPEG-4 AVC/H.264
    Качество: BDRip 720p
    Видео: ~ 10.9 Мбит/сек, 1280 x 696, 59.940 кадров/сек
    Аудио#1: AC3 5.1, 48.0 KHz, 640 Кбит/сек - Русский (студия «Омикрон»)
    Аудио#2: AC3 5.1, 48.0 KHz, 640 Кбит/сек - Русский (Д.Есарев)

    MediaInfo

    Общее
    Уникальный идентификатор : 228443674446784733712917318051926737168 (0xABDCA6BD0EC3D4E2A48D444435658110)
    Полное имя : D:\Торренты\Enchanted Kingdom 60fps.mkv
    Формат : Matroska
    Версия формата : Version 2
    Размер файла : 7,56 Гбайт
    Продолжительность : 1 ч. 27 м.
    Общий поток : 12,4 Мбит/сек
    Название фильма : Enchanted Kingdom (2013) Blu-ray [2D/3D] 1080p BD-Remux
    Дата кодирования : UTC 2015-01-05 18:22:05
    Программа кодирования : mkvmerge v6.9.1 ('Blue Panther') 64bit built on Apr 18 2014 18:23:38
    Библиотека кодирования : libebml v1.3.0 + libmatroska v1.4.1
    Видео
    Идентификатор : 1
    Формат : AVC
    Формат/Информация : Advanced Video Codec
    Профиль формата : High@L4.1
    Параметр CABAC формата : Да
    Параметр ReFrames формата : 6 кадров
    Идентификатор кодека : V_MPEG4/ISO/AVC
    Продолжительность : 1 ч. 27 м.
    Битрейт : 10,9 Мбит/сек
    Ширина : 1280 пикселей
    Высота : 696 пикселей
    Соотношение сторон : 1,85:1
    Режим частоты кадров : Постоянный
    Частота кадров : 59,880 кадров/сек
    Частота кадров в оригинале : 59,940 кадров/сек
    Цветовое пространство : YUV
    Субдискретизация насыщенности : 4:2:0
    Битовая глубина : 8 бит
    Тип развёртки : Прогрессивная
    Бит/(Пиксели*Кадры) : 0.204
    Размер потока : 6,63 Гбайт (88%)
    Заголовок : Release by mimok
    Библиотека кодирования : x264 core 125 r2208 d9d2288
    Настройки программы : cabac=1 / ref=6 / deblock=1:1:1 / analyse=0x3:0x133 / me=umh / subme=8 / psy=1 / psy_rd=1.00:0.15 / mixed_ref=1 / me_range=20 / chroma_me=1 / trellis=2 / 8x8dct=1 / cqm=0 / deadzone=21,11 / fast_pskip=0 / chroma_qp_offset=-3 / threads=6 / lookahead_threads=1 / sliced_threads=0 / nr=0 / decimate=0 / interlaced=0 / bluray_compat=0 / constrained_intra=0 / bframes=8 / b_pyramid=2 / b_adapt=2 / b_bias=0 / direct=1 / weightb=1 / open_gop=0 / weightp=2 / keyint=600 / keyint_min=59 / scenecut=40 / intra_refresh=0 / rc=crf / mbtree=0 / crf=18.0 / qcomp=0.63 / qpmin=10 / qpmax=51 / qpstep=4 / ip_ratio=1.40 / pb_ratio=1.30 / aq=1:1.20
    Default : Да
    Forced : Нет
    Аудио #1
    Идентификатор : 2
    Формат : AC-3
    Формат/Информация : Audio Coding 3
    Расширение режима : CM (complete main)
    Параметр Endianness формата : Big
    Идентификатор кодека : A_AC3
    Продолжительность : 1 ч. 27 м.
    Вид битрейта : Постоянный
    Битрейт : 640 Кбит/сек
    Каналы : 6 каналов
    Расположение каналов : Front: L C R, Side: L R, LFE
    Частота : 48,0 КГц
    Битовая глубина : 16 бит
    Метод сжатия : С потерями
    Размер потока : 400 Мбайт (5%)
    Заголовок : студия «Омикрон»
    Язык : Russian
    Default : Да
    Forced : Нет
    Аудио #2
    Идентификатор : 3
    Формат : AC-3
    Формат/Информация : Audio Coding 3
    Расширение режима : CM (complete main)
    Параметр Endianness формата : Big
    Идентификатор кодека : A_AC3
    Продолжительность : 1 ч. 27 м.
    Вид битрейта : Постоянный
    Битрейт : 640 Кбит/сек
    Каналы : 6 каналов
    Расположение каналов : Front: L C R, Side: L R, LFE
    Частота : 48,0 КГц
    Битовая глубина : 16 бит
    Метод сжатия : С потерями
    Размер потока : 400 Мбайт (5%)
    Заголовок : Д.Есарев
    Язык : Russian
    Default : Нет
    Forced : Нет

    Скринлист

    Скриншоты:
  2. Стаж:
    3 года
    Сообщений:
    111
    Пол:
    Мужской
     
    mimok, спасибо! Качество документалки просто зашкаливает!
    25-Авг-2015 15:09 (спустя 7 месяцев 19 дней)
  3. Стаж:
    3 года 1 месяц
    Сообщений:
    311
    Пол:
    Мужской
     
    Тимур Артыков, :az:
    25-Авг-2015 17:30 (спустя 2 часа 21 минута)
  4. Стаж:
    3 года
    Сообщений:
    111
    Пол:
    Мужской
     
    mimok, когда теперь следующую? Хотелось бы поскорее увидеть подобное
    29-Авг-2015 05:07 (спустя 3 дня)
  5. Стаж:
    3 года 1 месяц
    Сообщений:
    311
    Пол:
    Мужской
     
    3594mimok, когда теперь следующую? Хотелось бы поскорее увидеть подобное
    что именно?
    29-Авг-2015 22:22 (спустя 17 часов)
  6. Стаж:
    3 года
    Сообщений:
    111
    Пол:
    Мужской
     
    mimok, про природу и завораживающие пейзажи)
    29-Авг-2015 23:22 (спустя 59 минут)
  7. Стаж:
    3 года 1 месяц
    Сообщений:
    311
    Пол:
    Мужской
     
    Тимур Артыков, предложите что нибудь
    30-Авг-2015 09:52 (спустя 10 часов)
  8. Стаж:
    10 месяцев 7 дней
    Сообщений:
    5
    Пол:
    Не указан
     
    3606Тимур Артыков, предложите что нибудь
    например фильм Home ( Дом свидание с вселенной) вроде так называется,сансара или барака. Поцелуй
    05-Май-2017 14:41 (спустя 1 год 8 месяцев)


Вы не можете начинать темы
Вы не можете отвечать на сообщения
Вы не можете редактировать свои сообщения
Вы не можете удалять свои сообщения
Вы не можете голосовать в опросах
Вы не можете прикреплять файлы к сообщениям
Вы не можете скачивать файлы