Стражи Галактики. Часть 2 / Guardians of the Galaxy Vol. 2 (2017) BDRip 1080p | 60 fps Пираты Карибского моря: Мертвецы не рассказывают сказки / Pirates of the Caribbean: Dead Men Tell No Tales (2017) BDRip 1080p | 60 fps Человек-паук: Возвращение домой / Spider-Man: Homecoming (2017) BDRip 1080p | 60 fps Валериан и город тысячи планет / Valerian and the City of a Thousand Planets (2017) BDRip 1080p | 60 fps Мстители: Эра Альтрона / Avengers: Age of Ultron (2015) BDRip 1080p | 60 fps Тор: Рагнарёк / Thor: Ragnarok (2017) BDRip 1080p | 60 fps Форсаж 8 / The Fate of the Furious (2017) BDRip 1080p | 60 fps Тёмная башня / The Dark Tower (2017) BDRip 720p | 60 fps
  1. Стаж:
    3 года 6 месяцев
    Сообщений:
    2290
    Пол:
    Мужской
    «Based on the true case files of the Warrens»- Информация о фильме
    Название: Заклятие
    Оригинальное название: The Conjuring
    Год выхода: 2013
    Жанр: Ужасы, триллер
    Режиссер: Джеймс Ван
    Сценарий: Чад Хэйес, Кэри Хэйес
    Продюсер: Роб Кауэн, Тони ДеРоза-Грюнд, Питер Сафран
    В ролях: Вера Фармига, Патрик Уилсон, Рон Ливингстон, Лили Тейлор, Шэнли Касвелл, Хейли МакФарланд, Джои Кинг, Маккензи Фой, Кайла Дивер, Шэннон Кук-Чун
    --О фильме:
    Фильм основан на реальных событиях из практики Эда и Лоррейн Уоррен. Пугающая история Эда и Лоррейн Уоррен, всемирно известных детективов, занимающихся паранормальными расследованиями. К ним за помощью обратилась семья, терроризируемая темным духом на уединенной ферме. Вынужденные сражаться с могущественной демонической сущностью Уоррены сталкиваются с самым пугающим случаем в своей жизни.- Страна: США
    Продолжительность: 01:51:58
    -- Файл
    Кодек: MPEG4/ISO/AVC H.264
    Формат: MKV
    Качество: BDRip-AVC
    Видео: 1024x424 (2.40:1) | at 59,940 fps | 4.5 Мбит/сек
    Аудио: AC3 | 5.1 | 48 kHz | 448 Кбит/сек | 16 bit | Дублированный |

    MedifInfo

    Video
    ID : 2
    Format : AVC
    Format/Info : Advanced Video Codec
    Format profile : High@L4.1
    Format settings, CABAC : Yes
    Format settings, ReFrames : 9 frames
    Codec ID : V_MPEG4/ISO/AVC
    Duration : 1h 51mn
    Bit rate : 4 567 Kbps
    Width : 1 024 pixels
    Height : 424 pixels
    Display aspect ratio : 2.40:1
    Frame rate : 59.940 fps
    Color space : YUV
    Chroma subsampling : 4:2:0
    Bit depth : 8 bits
    Scan type : Progressive
    Bits/(Pixel*Frame) : 0.175
    Stream size : 3.50 GiB (89%)
    Writing library : x264 core 146 r2538 121396c
    Encoding settings : cabac=1 / ref=9 / deblock=1:0:0 / analyse=0x3:0x113 / me=umh / subme=11 / psy=1 / psy_rd=0.00:0.00 / mixed_ref=1 / me_range=42 / chroma_me=1 / trellis=2 / 8x8dct=1 / cqm=0 / deadzone=21,11 / fast_pskip=1 / chroma_qp_offset=0 / threads=12 / lookahead_threads=1 / sliced_threads=0 / nr=0 / decimate=1 / interlaced=0 / bluray_compat=0 / constrained_intra=0 / bframes=16 / b_pyramid=2 / b_adapt=1 / b_bias=0 / direct=1 / weightb=1 / open_gop=0 / weightp=2 / keyint=250 / keyint_min=25 / scenecut=40 / intra_refresh=0 / rc=2pass / mbtree=0 / bitrate=4567 / ratetol=1.0 / qcomp=0.60 / qpmin=0 / qpmax=69 / qpstep=4 / cplxblur=20.0 / qblur=0.5 / ip_ratio=1.40 / pb_ratio=1.30 / aq=1:1.00
    Language : English
    Default : Yes
    Forced : No
    Audio
    ID : 1
    Format : AC-3
    Format/Info : Audio Coding 3
    Mode extension : CM (complete main)
    Codec ID : A_AC3
    Duration : 1h 51mn
    Bit rate mode : Constant
    Bit rate : 448 Kbps
    Channel(s) : 6 channels
    Channel positions : Front: L C R, Side: L R, LFE
    Sampling rate : 48.0 KHz
    Bit depth : 16 bits
    Compression mode : Lossy
    Stream size : 359 MiB (9%)
    Language : Russian
    Default : Yes
    Forced : No


Вы не можете начинать темы
Вы не можете отвечать на сообщения
Вы не можете редактировать свои сообщения
Вы не можете удалять свои сообщения
Вы не можете голосовать в опросах
Вы не можете прикреплять файлы к сообщениям
Вы не можете скачивать файлы