[Цитировать]
Kryl

Заброшенный / Forsaken (2015) BDRip 720p | 60 fps- Информация
Название: Заброшенный
Оригинальное название: Forsaken
Год выхода: 2015
Жанр: драма, вестерн
Режиссер: Джон Кассар
Сценарий: Брэд Мирман
Продюсер: Кевин ДеУолт, Гари Хаусэм, Билл Маркс
В ролях: Кифер Сазерленд, Дональд Сазерленд, Деми Мур, Брайан Кокс, Майкл Уинкотт, Лэндон Либуарон, Шиван Уильямс, Джонни Рис, Аарон Пул, Али Уэбб, Уэсли Морган, Майкл Терриоль, Кристофер Розамунд
--Сюжет:
Наёмный убийца Джон Генри оставляет своё кровавое ремесло и возвращается в родной город, надеясь восстановить отношения с собственным отцом.- - Страна: Канада, Франция, США
Продолжительность: 01:29:47

Файл
Кодек: MPEG4/ISO/AVC H.264
Формат: MKV
Качество: BDRip 720p | 60 fps
Видео: 1280 x 534 (2.397) | 59.940 fps | 9.0 Мбит/сек
Аудио 1: AC3 | 5.1 | 48 kHz | 448 kbps | 16 bit | Профессиональный многоголосый (закадровый), FocusStudio |
Аудио 2: AC3 | 5.1 | 48 kHz | 448 kbps | 16 bit | ENG |
Субтитры: Русские, английские

MedifInfo

Видео
Идентификатор : 1
Формат : AVC
Формат/Информация : Advanced Video Codec
Профиль формата : High@L4.1
Параметр CABAC формата : Да
Параметр ReFrames формата : 3 кадра
Параметр GOP формата : M=3, N=72
Идентификатор кодека : V_MPEG4/ISO/AVC
Продолжительность : 1 ч. 29 м.
Вид битрейта : Переменный
Битрейт : 8613 Кбит/сек
Максимальный битрейт : 9000 Кбит/сек
Ширина : 1280 пикселей
Высота : 534 пикселя
Соотношение сторон : 2,40:1
Режим частоты кадров : Постоянный
Частота кадров : 59,880 кадров/сек
Частота кадров в оригинале : 59,940 кадров/сек
Стандарт вещания : PAL
Цветовое пространство : YUV
Субдискретизация насыщенности : 4:2:0
Битовая глубина : 8 бит
Тип развёртки : Прогрессивная
Бит/(Пиксели*Кадры) : 0.210
Размер потока : 5,39 Гбайт (89%)
Заголовок : www.60-fps.org
Язык : English
Default : Да
Forced : Нет
Основные цвета : BT.601 NTSC
Характеристики трансфера : BT.601
Коэффициенты матрицы : BT.601
colour_range : Limited
DURATION : 01:29:36.512000000
NUMBER_OF_FRAMES : 168017
NUMBER_OF_BYTES : 301086464
_STATISTICS_WRITING_APP : mkvmerge v7.6.0 ('Garden of Dreams') 32bit built on Feb 8 2015 12:51:39
_STATISTICS_WRITING_DATE_UTC : 2016-03-30 07:34:10
_STATISTICS_TAGS : BPS DURATION NUMBER_OF_FRAMES NUMBER_OF_BYTES
Аудио #1
Идентификатор : 2
Формат : AC-3
Формат/Информация : Audio Coding 3
Расширение режима : CM (complete main)
Параметр Endianness формата : Big
Идентификатор кодека : A_AC3
Продолжительность : 1 ч. 29 м.
Вид битрейта : Постоянный
Битрейт : 448 Кбит/сек
Каналы : 6 каналов
Расположение каналов : Front: L C R, Side: L R, LFE
Частота : 48,0 КГц
Битовая глубина : 16 бит
Метод сжатия : С потерями
Размер потока : 287 Мбайт (5%)
Заголовок : MVO [Focus Studio]
Язык : Russian
Default : Да
Forced : Нет
Аудио #2
Идентификатор : 3
Формат : AC-3
Формат/Информация : Audio Coding 3
Расширение режима : CM (complete main)
Параметр Endianness формата : Big
Идентификатор кодека : A_AC3
Продолжительность : 1 ч. 29 м.
Вид битрейта : Постоянный
Битрейт : 448 Кбит/сек
Каналы : 6 каналов
Расположение каналов : Front: L C R, Side: L R, LFE
Частота : 48,0 КГц
Битовая глубина : 16 бит
Метод сжатия : С потерями
Размер потока : 287 Мбайт (5%)
Заголовок : ENG
Язык : English
Default : Нет
Forced : Нет
Текст #1
Идентификатор : 4
Формат : UTF-8
Идентификатор кодека : S_TEXT/UTF8
Идентификатор кодека/Информация : UTF-8 Plain Text
Язык : Russian
Default : Нет
Forced : Нет
DURATION : 01:24:07.500000000
NUMBER_OF_FRAMES : 1767
NUMBER_OF_BYTES : 7105828
_STATISTICS_WRITING_APP : mkvmerge v7.6.0 ('Garden of Dreams') 32bit built on Feb 8 2015 12:51:39
_STATISTICS_WRITING_DATE_UTC : 2016-03-30 07:34:10
_STATISTICS_TAGS : BPS DURATION NUMBER_OF_FRAMES NUMBER_OF_BYTES
Текст #2
Идентификатор : 5
Формат : PGS
Режим смешивания : zlib
Идентификатор кодека : S_HDMV/PGS
Идентификатор кодека/Информация : The same subtitle format used on BDs/HD-DVDs
Заголовок : English-PGS
Язык : English
Default : Нет
Forced : Нет
Меню
00:00:00.000 : en:Chapter 01
00:04:01.199 : en:Chapter 02
00:10:27.043 : en:Chapter 03
00:17:04.982 : en:Chapter 04
00:22:49.076 : en:Chapter 05
00:27:14.591 : en:Chapter 06
00:33:08.861 : en:Chapter 07
00:38:31.559 : en:Chapter 08
00:43:52.004 : en:Chapter 09
00:50:08.880 : en:Chapter 10
00:55:19.065 : en:Chapter 11
01:00:12.650 : en:Chapter 12
01:06:26.232 : en:Chapter 13
01:12:33.265 : en:Chapter 14
01:19:02.320 : en:Chapter 15
01:25:28.123 : en:Chapter 16
01:29:36.287 : en:Chapter 17

Релиз подготовлен 60 - fps

[Цитировать]
igor3176

так себе фильм на один раз Грущу

[Цитировать]
Bomber

Сообщение появиться после проверки модератором
 
Показать сообщения:    

Текущее время: 21-Сен 04:24

Часовой пояс: UTC + 3


Вы не можете начинать темы
Вы не можете отвечать на сообщения
Вы не можете редактировать свои сообщения
Вы не можете удалять свои сообщения
Вы не можете голосовать в опросах
Вы не можете прикреплять файлы к сообщениям
Вы не можете скачивать файлы