«A Fistful of Dollars is the first motion picture of its kind. It won't be the last!»- Информация
Название: За пригоршню долларов
Оригинальное название: Per un pugno di dollari
Год выхода: 1964
Жанр: боевик, драма, вестерн
Режиссер: Серджио Леоне
Сценарий: Виктор Андрес Катена, Серджио Леоне, Хайме Комас Хиль
Продюсер: Арриго Коломбо, Джорджо Папи, Пьеро Сантини
В ролях: Клинт Иствуд, Джан-Мария Волонте, Марианне Кох, Вольфганг Лукши, Марио Брега, Кэрол Браун
--Сюжет:
В маленьком городке идет война между двумя влиятельными семействами, которых абсолютно не интересует закон. Герой Клинта Иствуда — человек без имени, умеющий стрелять без промаха…
- - Страна: Италия, Испания, Германия (ФРГ)
Продолжительность: 01:39:54

Файл
Кодек: MPEG4/ISO/AVC H.264
Формат: MKV
Качество: BDRip-AVC | 60 fps
Видео: 1024x440 (2.35:1) | 60.000 fps | 4.0 Мбит/сек
Аудио: AC3 | 5.1 | 48 kHz | 448 kbps | 16 bit | Профессиональный (многоголосый) |
Субтитры: русские (Полные), английские (Полные)

MedifInfo

Video
ID : 1
Format : AVC
Format/Info : Advanced Video Codec
Format profile : High@L4.1
Format settings, CABAC : Yes
Format settings, ReFrames : 4 frames
Codec ID : V_MPEG4/ISO/AVC
Duration : 1h 39mn
Bit rate : 4 000 Kbps
Width : 1 024 pixels
Height : 440 pixels
Display aspect ratio : 2.35:1
Frame rate : 60.000 fps
Color space : YUV
Chroma subsampling : 4:2:0
Bit depth : 8 bits
Scan type : Progressive
Bits/(Pixel*Frame) : 0.148
Stream size : 2.73 GiB (88%)
Writing library : x264 core 146 r2538 121396c
Encoding settings : cabac=1 / ref=3 / deblock=1:0:0 / analyse=0x3:0x113 / me=umh / subme=9 / psy=1 / psy_rd=1.00:0.10 / mixed_ref=1 / me_range=32 / chroma_me=1 / trellis=2 / 8x8dct=1 / cqm=0 / deadzone=21,11 / fast_pskip=0 / chroma_qp_offset=-3 / threads=12 / lookahead_threads=3 / sliced_threads=0 / nr=0 / decimate=1 / interlaced=0 / bluray_compat=0 / constrained_intra=0 / bframes=16 / b_pyramid=2 / b_adapt=2 / b_bias=0 / direct=3 / weightb=1 / open_gop=0 / weightp=2 / keyint=250 / keyint_min=25 / scenecut=40 / intra_refresh=0 / rc_lookahead=40 / rc=2pass / mbtree=1 / bitrate=4000 / ratetol=1.0 / qcomp=0.60 / qpmin=0 / qpmax=69 / qpstep=4 / cplxblur=20.0 / qblur=0.5 / vbv_maxrate=14000 / vbv_bufsize=14000 / nal_hrd=none / filler=0 / ip_ratio=1.40 / aq=1:1.00
Language : English
Default : Yes
Forced : No
Audio
ID : 2
Format : AC-3
Format/Info : Audio Coding 3
Mode extension : CM (complete main)
Codec ID : A_AC3
Duration : 1h 39mn
Bit rate mode : Constant
Bit rate : 448 Kbps
Channel(s) : 6 channels
Channel positions : Front: L C R, Side: L R, LFE
Sampling rate : 48.0 KHz
Bit depth : 16 bits
Compression mode : Lossy
Stream size : 320 MiB (10%)
Title : MVO
Language : Russian
Default : Yes
Forced : No
Text #1
ID : 3
Format : UTF-8
Codec ID : S_TEXT/UTF8
Codec ID/Info : UTF-8 Plain Text
Title : Полные
Language : Russian
Default : No
Forced : No
Text #2
ID : 4
Format : UTF-8
Codec ID : S_TEXT/UTF8
Codec ID/Info : UTF-8 Plain Text
Title : Полные
Language : English
Default : No
Forced : No
Menu
00:00:00.000 : en:Chapter 1
00:02:53.708 : en:Chapter 2
00:08:26.333 : en:Chapter 3
00:16:38.083 : en:Chapter 4
00:21:15.875 : en:Chapter 5
00:27:48.000 : en:Chapter 6
00:34:26.250 : en:Chapter 7
00:36:59.083 : en:Chapter 8
00:41:20.792 : en:Chapter 9
00:47:50.083 : en:Chapter 10
00:50:38.500 : en:Chapter 11
00:57:24.125 : en:Chapter 12
01:00:57.875 : en:Chapter 13
01:07:26.583 : en:Chapter 14
01:11:52.957 : en:Chapter 15
01:24:55.832 : en:Chapter 16
01:28:56.167 : en:Chapter 17
01:34:37.708 : en:Chapter 18

[Цитировать]
ENIGMA

Огромное Спасибо! Овации
 
Показать сообщения:    

Текущее время: 18-Окт 05:04

Часовой пояс: UTC + 3


Вы не можете начинать темы
Вы не можете отвечать на сообщения
Вы не можете редактировать свои сообщения
Вы не можете удалять свои сообщения
Вы не можете голосовать в опросах
Вы не можете прикреплять файлы к сообщениям
Вы не можете скачивать файлы