Чёрная Пантера / Black Panther (2018) BDRip 1080p | 60 fps Ночные игры / Game Night (2018) BDRip 720p | 60 fps Тихоокеанский рубеж 2 / Pacific Rim: Uprising (2018) BDRip 1080p | 60 fps Ограбление в ураган / The Hurricane Heist (2018) BDRip 720p | 60 fps Чёрная Пантера / Black Panther (2018) BDRip 720p | 60 fps Красный воробей / Red Sparrow (2018) BDRip 720p | 60 fps Я худею (2018) BDRip 1080p | 60 FPS Поезд на Париж / The 15:17 to Paris (2018) BDRip 720p | 60 fps
  1. Стаж:
    1 год 9 месяцев
    Сообщений:
    476
    Пол:
    Мужской
    «Афера - это тоже игра»- Информация
    Название: За гранью реальности
    Оригинальное название: За гранью
    Год выхода: 2018
    Жанр: приключения, фэнтези
    Режиссер: Александр Богуславский
    Сценарий: Михаил Зубко, Александр Богуславский, Дмитрий Жигалов
    Продюсер: Виктор Денисюк, Евгений Мелентьев, Александр Куринский
    В ролях: Милош Бикович,Антонио Бандерас,Любовь Аксенова,Евгений Стычкин,Юрий Чурсин,Аристарх Венес,Петар Зекавица,Сергей Астахов,Никита Дювбанов,Михаил Михеев
    --Сюжет:
    Майкл, талантливый аферист, собирает команду людей с паранормальными способностями, чтобы ограбить казино. Однако все идет не по плану, и герои оказываются в смертельной опасности. Чтобы спасти их, Майклу придется действовать за гранью реальности — в загадочном мире подсознания, откуда проистекают сверхспособности его друзей.- Страна: Россия
    Продолжительность: 01:42:16

    Файл
    Кодек: MPEG4/ISO/AVC/H.264
    Формат: MKV
    Качество: BDRip 1080p | 60 fps
    Видео: 1920 x 800 (2.400) | 60.000 fps | 8.0 Мбит/сек
    Аудио 1: AC-3| 5.1 | 48 kHz | 384 Кбит/сек | 16 bit | Оригинал |
    Субтитры: НЕТ

    MedifInfo

    Видео
    Идентификатор : 1
    Формат : AVC
    Формат/Информация : Advanced Video Codec
    Профиль формата : High@L4.1
    Параметр CABAC формата : Да
    Параметр ReFrames формата : 4 кадра
    Идентификатор кодека : V_MPEG4/ISO/AVC
    Продолжительность : 1 ч. 42 м.
    Битрейт : 8000 Кбит/сек
    Ширина : 1920 пикселей
    Высота : 800 пикселей
    Соотношение сторон : 2,40:1
    Режим частоты кадров : Постоянный
    Частота кадров : 60,000 кадров/сек
    Цветовое пространство : YUV
    Субдискретизация насыщенности : 4:2:0
    Битовая глубина : 8 бит
    Тип развёртки : Прогрессивная
    Бит/(Пиксели*Кадры) : 0.087
    Размер потока : 5,70 Гбайт (95%)
    Библиотека кодирования : x264 core 146 r2538 121396c
    Настройки программы : cabac=1 / ref=2 / deblock=1:-3:-3 / analyse=0x3:0x113 / me=hex / subme=6 / psy=1 / psy_rd=1.00:0.25 / mixed_ref=1 / me_range=16 / chroma_me=1 / trellis=1 / 8x8dct=1 / cqm=0 / deadzone=6,6 / fast_pskip=1 / chroma_qp_offset=-4 / threads=12 / lookahead_threads=2 / sliced_threads=0 / nr=0 / decimate=0 / interlaced=0 / bluray_compat=0 / constrained_intra=0 / bframes=3 / b_pyramid=2 / b_adapt=1 / b_bias=0 / direct=1 / weightb=1 / open_gop=0 / weightp=1 / keyint=599 / keyint_min=59 / scenecut=40 / intra_refresh=0 / rc_lookahead=30 / rc=2pass / mbtree=1 / bitrate=8000 / ratetol=1.0 / qcomp=0.80 / qpmin=0 / qpmax=69 / qpstep=4 / cplxblur=20.0 / qblur=0.5 / vbv_maxrate=50000 / vbv_bufsize=50000 / nal_hrd=none / filler=0 / ip_ratio=1.10 / aq=1:0.50
    Язык : English
    Default : Да
    Forced : Нет
    Аудио
    Идентификатор : 2
    Формат : AC-3
    Формат/Информация : Audio Coding 3
    Расширение режима : CM (complete main)
    Параметр Endianness формата : Big
    Идентификатор кодека : A_AC3
    Продолжительность : 1 ч. 42 м.
    Вид битрейта : Постоянный
    Битрейт : 384 Кбит/сек
    Каналы : 6 каналов
    Расположение каналов : Front: L C R, Side: L R, LFE
    Частота : 48,0 КГц
    Частота кадров : 31,250 кадров/сек (1536 spf)
    Битовая глубина : 16 бит
    Метод сжатия : С потерями
    Размер потока : 281 Мбайт (5%)
    Заголовок : Оригинал
    Язык : Russian
    Default : Да
    Forced : Нет
    Меню
    00:00:00.000 : en:Глава 1
    00:07:35.120 : en:Глава 2
    00:15:02.920 : en:Глава 3
    00:23:07.160 : en:Глава 4
    00:32:05.440 : en:Глава 5
    00:40:45.640 : en:Глава 6
    00:48:56.480 : en:Глава 7
    00:56:55.760 : en:Глава 8
    01:05:57.800 : en:Глава 9
    01:14:50.560 : en:Глава 10
    01:23:06.760 : en:Глава 11
    01:32:41.880 : en:Глава 12


Вы не можете начинать темы
Вы не можете отвечать на сообщения
Вы не можете редактировать свои сообщения
Вы не можете удалять свои сообщения
Вы не можете голосовать в опросах
Вы не можете прикреплять файлы к сообщениям
Вы не можете скачивать файлы