Rammstein (БЕЗ ЦЕНЗУРЫ)| WEBRip 1080p | 60 fps Britney Spears - Oops! I Did It Again Uncut (2009) HD 1080p | 60 fps BLACKPINK | WEBRip 1080p | 60 fps Britney Spears - Toxic (2004) HDTVRip 1080p | 60 fps Evanescence - Synthesis Live (2018) BDRip 1080p | 60 fps ITZY | WEBRip 1080p | 60 fps Jennifer Lopez ft. Iggy Azalea - Booty (2014) Full HD 1080p | 60 fps Luis Fonsi - Despacito ft. Daddy Yankee (2017) WEBRip 1080p | 60 fps
  1. Longevity:
    5 years 11 months
    Posts:
    2419
    Gender:
    Male
    -Юрий Шатунов - А лето цвета.. (2013) Full HD 1080p | 60 fps- --Информация о Клипе
    Исполнитель: Юрий Шатунов
    Название: А лето цвета..
    Год выхода: 2013
    Продолжительность: 00:04:57-Файл
    Кодек: MPEG4/ISO/AVC/ H.264
    Формат: MKV
    Качество: MasterRip
    Видео: 1920 x 820 (2.341) at 60.000 fps 15.0 Мбит/сек
    Аудио: AC-3 | 448 Кбит/сек | 48.0 KHz | 2 channels

    MI

    Видео
    Идентификатор : 1
    Формат : AVC
    Формат/Информация : Advanced Video Codec
    Профиль формата : High@L4.1
    Параметр CABAC формата : Да
    Параметр ReFrames формата : 5 кадров
    Идентификатор кодека : V_MPEG4/ISO/AVC
    Продолжительность : 4 м. 57 с.
    Битрейт : 15,0 Мбит/сек
    Ширина : 1920 пикселей
    Высота : 820 пикселей
    Соотношение сторон : 2,35:1
    Режим частоты кадров : Постоянный
    Частота кадров : 60,000 кадров/сек
    Цветовое пространство : YUV
    Субдискретизация насыщенности : 4:2:0
    Битовая глубина : 8 бит
    Тип развёртки : Прогрессивная
    Бит/(Пиксели*Кадры) : 0.159
    Размер потока : 524 Мбайт (95%)
    Заголовок : www.60-fps.org
    Библиотека кодирования : x264 core 129 r2245 bc13772
    Настройки программы : cabac=1 / ref=5 / deblock=1:-1:-1 / analyse=0x3:0x133 / me=esa / subme=9 / psy=1 / psy_rd=1.00:0.25 / mixed_ref=1 / me_range=32 / chroma_me=1 / trellis=2 / 8x8dct=1 / cqm=0 / deadzone=6,6 / fast_pskip=1 / chroma_qp_offset=-4 / threads=12 / lookahead_threads=2 / sliced_threads=0 / nr=0 / decimate=0 / interlaced=0 / bluray_compat=0 / constrained_intra=0 / bframes=4 / b_pyramid=2 / b_adapt=2 / b_bias=0 / direct=3 / weightb=1 / open_gop=0 / weightp=2 / keyint=600 / keyint_min=60 / scenecut=40 / intra_refresh=0 / rc_lookahead=60 / rc=2pass / mbtree=1 / bitrate=14999 / ratetol=1.0 / qcomp=0.80 / qpmin=0 / qpmax=69 / qpstep=4 / cplxblur=19.0 / qblur=0.0 / ip_ratio=1.10 / aq=1:0.50
    Язык : English
    Default : Нет
    Forced : Нет
    Аудио
    Идентификатор : 2
    Формат : AC-3
    Формат/Информация : Audio Coding 3
    Расширение режима : CM (complete main)
    Параметр Endianness формата : Big
    Идентификатор кодека : A_AC3
    Продолжительность : 4 м. 57 с.
    Вид битрейта : Постоянный
    Битрейт : 448 Кбит/сек
    Каналы : 2 канала
    Расположение каналов : Front: L R
    Частота : 48,0 КГц
    Битовая глубина : 16 бит
    Метод сжатия : С потерями
    Размер потока : 15,9 Мбайт (3%)
    Заголовок : www.60-fps.org
    Язык : English
    Default : Нет
    Forced : Нет

    Release was prepared by 60 - fps

  2. ZHz

    Longevity:
    5 years 11 months
    Posts:
    187
    Gender:
    Male
    что то этот мастер так себе, видно, что изображение раздуто из более низкого разрешения
    26-Feb-2015 11:16 (after 44 minutes)
  3. Longevity:
    5 years 11 months
    Posts:
    2419
    Gender:
    Male
    1995что то этот мастер так себе, видно, что изображение раздуто из более низкого разрешения
    http://rutracker.org/forum/viewtopic.php?t=4618287
    26-Feb-2015 12:13 (after 57 minutes)
  4. ZHz

    Longevity:
    5 years 11 months
    Posts:
    187
    Gender:
    Male
    ну в исходнике это тоже есть
    26-Feb-2015 19:42 (after 7 hours)


You cannot post new topics in this forum
You cannot reply to topics in this forum
You cannot edit your posts in this forum
You cannot delete your posts in this forum
You cannot vote in polls in this forum
You cannot attach files in this forum
You cannot download files in this forum