Alice Merton - No Roots (2017) WEBRip 1080p | 60 fps LOBODA - Парень (2018) WEBRip 1080p | 60 fps MARUV & BOOSIN - Drunk Groove (2018) WEBRip 1080p | 60 fps Dan Balan - Chica Bomb (2010) WEBRip 1080p | 60 fps Taylor Swift - Style (2015) Full HD 1080p | 60 fps Schiller: Zeitreise Live (2016) BDRip 720p | 60fps Jessie J, Ariana Grande, Nicki Minaj - Bang Bang ft. Ariana Grande, Nicki Minaj (2014) Full HD 1080p | 60 fps Britney Spears - Toxic (2004) HDTVRip 1080p | 60 fps
  1. Стаж:
    3 года 6 месяцев
    Сообщений:
    2283
    Пол:
    Мужской
    -Юлия Савичева - Прости (2015) WEBRip 4K | 60 fps- -Информация о Клипе
    Исполнитель: Юлия Савичева
    Название: Прости
    Год выхода: 2015
    Продолжительность: 00:04:27-Файл
    Кодек: MPEG4/ISO/AVC/ H.264
    Формат: MKV
    Качество: WEBRip 4K
    Видео: 3840 x 1512 (2.540) at 60.000 fps 14,7 Мбит/сек
    Аудио : MP3 | 320 Кбит/сек | 44.1 KHz | 2.0 channels

    MI

    Видео
    Идентификатор : 1
    Формат : AVC
    Формат/Информация : Advanced Video Codec
    Профиль формата : Main@L5.2
    Параметр CABAC формата : Да
    Параметр ReFrames формата : 3 кадра
    Идентификатор кодека : V_MPEG4/ISO/AVC
    Продолжительность : 4 м. 27 с.
    Битрейт : 14,7 Мбит/сек
    Ширина : 3840 пикселей
    Высота : 1512 пикселей
    Соотношение сторон : 2,540
    Режим частоты кадров : Постоянный
    Частота кадров : 60,000 кадров/сек
    Стандарт вещания : PAL
    Цветовое пространство : YUV
    Субдискретизация насыщенности : 4:2:0
    Битовая глубина : 8 бит
    Тип развёртки : Прогрессивная
    Бит/(Пиксели*Кадры) : 0.042
    Размер потока : 469 Мбайт (96%)
    Заголовок : www.60-fps.org
    Язык : English
    Default : Да
    Forced : Нет
    Основные цвета : BT.709
    Характеристики трансфера : BT.709
    Коэффициенты матрицы : BT.709
    colour_range : Limited
    Аудио
    Идентификатор : 2
    Формат : MPEG Audio
    Версия формата : Version 1
    Профиль формата : Layer 3
    Режим : Joint stereo
    Расширение режима : MS Stereo
    Идентификатор кодека : A_MPEG/L3
    Идентификатор кодека/Подсказка : MP3
    Продолжительность : 4 м. 27 с.
    Вид битрейта : Постоянный
    Битрейт : 320 Кбит/сек
    Каналы : 2 канала
    Частота : 44,1 КГц
    Метод сжатия : С потерями
    Размер потока : 10,2 Мбайт (2%)
    Заголовок : MP3
    Библиотека кодирования : LAME3.99.5
    Default : Да
    Forced : Нет

    Релиз подготовлен 60 - fps



    Последний раз редактировалось: Kryl (2015-07-26 12:38), всего редактировалось 1 раз
  2. Стаж:
    3 года 5 месяцев
    Сообщений:
    111
    Пол:
    Мужской
    Почему то мой торррент клиент называет этот клип Юлия Савичева - Прости? Это какая то шутка? :ab:
    26-Июл-2015 11:35 (спустя 45 минут)
  3. Стаж:
    3 года 6 месяцев
    Сообщений:
    2283
    Пол:
    Мужской
    3349Почему то мой торррент клиент называет этот клип Юлия Савичева - Прости? Это какая то шутка? :ab:
    Так правильно называет , просто я не внимательно оформил ..
    26-Июл-2015 12:39 (спустя 1 час 3 минуты)
  4. Стаж:
    3 года 5 месяцев
    Сообщений:
    111
    Пол:
    Мужской
    KRYL, Ясненько
    26-Июл-2015 14:20 (спустя 1 час 41 минута)


Вы не можете начинать темы
Вы не можете отвечать на сообщения
Вы не можете редактировать свои сообщения
Вы не можете удалять свои сообщения
Вы не можете голосовать в опросах
Вы не можете прикреплять файлы к сообщениям
Вы не можете скачивать файлы