[Цитировать]
Kryl

Музыка Юлия Савичева - Мой Путь (2016) WEBRip 1080p | 60 fps Музыка -Информация о Клипе
Исполнитель: Юлия Савичева
Название: Мой Путь
Год выхода: 2016
Продолжительность: 00:03:19
О клипе:

Подопечная продюсера и композитора Маскима Фадеева Юлия Савичева презентовала клип на новую песню «Мой путь», которая за три дня со дня премьеры набрала более 100 000 просмотров.
Песня рассказывает о скорости смены событий, лиц в жизни артистки, живущей сценой и многом другом, что зачастую незамечается в круговороте дней. Юля также подчеркнула, что посвятила эту песню замечательным музыкантам, артистам и актерам, которых с нами больше нет.
«Я посвятила ее Людмиле Гурченко, Людмиле Зыкиной, Валентине Толкуновой, Анне Герман, Елене Образцовой, Галине Вишневской, Владимиру Высоцкому, Эдуарду Хилю, Илье Олейникову, Льву Дурову, Андрею Панину, Александру Пороховщикову, Батырхану Шукенову, Жанне Фриске и всем тем, кто делал жизнь каждого из нас немного светлее, понятнее и красивее», — добавила Юлия Савичева.
-Файл
Кодек: MPEG4/ISO/AVC/ H.264
Формат: MKV
Качество: WEBRip 1080p
Видео: 1920 x 800 (2.400) | 60.000 fps 5.0 Мбит/сек
Аудио: MP3 | 320 Кбит/сек | 44.1 KHz | 2 channels

MI

Видео
Идентификатор : 1
Формат : AVC
Формат/Информация : Advanced Video Codec
Профиль формата : High@L4.2
Параметр CABAC формата : Да
Параметр ReFrames формата : 3 кадра
Параметр GOP формата : M=3, N=72
Идентификатор кодека : V_MPEG4/ISO/AVC
Продолжительность : 3 м. 19 с.
Вид битрейта : Переменный
Битрейт : 4852 Кбит/сек
Максимальный битрейт : 5000 Кбит/сек
Ширина : 1920 пикселей
Высота : 800 пикселей
Соотношение сторон : 2,40:1
Режим частоты кадров : Постоянный
Частота кадров : 60,000 кадров/сек
Стандарт вещания : PAL
Цветовое пространство : YUV
Субдискретизация насыщенности : 4:2:0
Битовая глубина : 8 бит
Тип развёртки : Прогрессивная
Бит/(Пиксели*Кадры) : 0.053
Размер потока : 115 Мбайт (92%)
Заголовок : www.60-fps.org
Язык : English
Default : Да
Forced : Нет
Основные цвета : BT.709
Характеристики трансфера : BT.709
Коэффициенты матрицы : BT.709
colour_range : Limited
Аудио
Идентификатор : 2
Формат : MPEG Audio
Версия формата : Version 1
Профиль формата : Layer 3
Режим : Joint stereo
Идентификатор кодека : A_MPEG/L3
Идентификатор кодека/Подсказка : MP3
Продолжительность : 3 м. 19 с.
Вид битрейта : Постоянный
Битрейт : 320 Кбит/сек
Каналы : 2 канала
Частота : 44,1 КГц
Метод сжатия : С потерями
Размер потока : 7,61 Мбайт (6%)
Заголовок : MP3
Библиотека кодирования : LAME3.99.5
Default : Да
Forced : Нет

Релиз подготовлен 60 - fps

 
Показать сообщения:    

Текущее время: 08-Дек 19:05

Часовой пояс: UTC + 3


Вы не можете начинать темы
Вы не можете отвечать на сообщения
Вы не можете редактировать свои сообщения
Вы не можете удалять свои сообщения
Вы не можете голосовать в опросах
Вы не можете прикреплять файлы к сообщениям
Вы не можете скачивать файлы