Rammstein (БЕЗ ЦЕНЗУРЫ)| WEBRip 1080p | 60 fps Britney Spears - Oops! I Did It Again Uncut (2009) HD 1080p | 60 fps BLACKPINK | WEBRip 1080p | 60 fps Britney Spears - Toxic (2004) HDTVRip 1080p | 60 fps Evanescence - Synthesis Live (2018) BDRip 1080p | 60 fps Jennifer Lopez ft. Iggy Azalea - Booty (2014) Full HD 1080p | 60 fps Luis Fonsi - Despacito ft. Daddy Yankee (2017) WEBRip 1080p | 60 fps Britney Spears - ...Baby One More Time (2009) Full HD 1080p | 60 fps
  1. Longevity:
    5 years 11 months
    Posts:
    2419
    Gender:
    Male
    --Юлианна Караулова - Ты не такой (2015) WEBRip 1080p | 60 fps --Информация о Клипе
    Исполнитель: Юлианна Караулова
    Название: Ты не такой
    Год выхода: 2015
    Продолжительность: 00:03:15-Файл
    Кодек: MPEG4/ISO/AVC/ H.264
    Формат: MKV
    Качество: WEBRip 1080p
    Видео: 1920 x 800 (2.400) at 60.000 fps ~5.0 Мбит/сек
    Аудио: MP3 | 320 Кбит/сек | 44.1 KHz | 2 channels | 16 bits

    MediaInfo

    Видео
    Идентификатор : 1
    Формат : AVC
    Формат/Информация : Advanced Video Codec
    Профиль формата : Main@L4.2
    Параметр CABAC формата : Да
    Параметр ReFrames формата : 3 кадра
    Идентификатор кодека : V_MPEG4/ISO/AVC
    Продолжительность : 3 м. 15 с.
    Битрейт : 4887 Кбит/сек
    Ширина : 1920 пикселей
    Высота : 800 пикселей
    Соотношение сторон : 2,40:1
    Режим частоты кадров : Постоянный
    Частота кадров : 60,000 кадров/сек
    Стандарт вещания : PAL
    Цветовое пространство : YUV
    Субдискретизация насыщенности : 4:2:0
    Битовая глубина : 8 бит
    Тип развёртки : Прогрессивная
    Бит/(Пиксели*Кадры) : 0.053
    Размер потока : 114 Мбайт (92%)
    Заголовок : www.60-fps.org
    Язык : English
    Default : Да
    Forced : Нет
    Основные цвета : BT.709
    Характеристики трансфера : BT.709
    Коэффициенты матрицы : BT.709
    colour_range : Limited
    Аудио
    Идентификатор : 2
    Формат : MPEG Audio
    Версия формата : Version 1
    Профиль формата : Layer 3
    Режим : Joint stereo
    Идентификатор кодека : A_MPEG/L3
    Идентификатор кодека/Подсказка : MP3
    Продолжительность : 3 м. 15 с.
    Вид битрейта : Постоянный
    Битрейт : 320 Кбит/сек
    Каналы : 2 канала
    Частота : 44,1 КГц
    Метод сжатия : С потерями
    Размер потока : 7,46 Мбайт (6%)
    Заголовок : MP3
    Библиотека кодирования : LAME3.99.5
    Default : Да
    Forced : Нет

    Release was prepared by 60 - fps

  2. Longevity:
    4 years 8 months
    Posts:
    5
    Gender:
    Unknown
    Встаньте на раздачу
    11-Jan-2016 12:59 (after 4 months 29 days)
  3. Longevity:
    5 years 11 months
    Posts:
    2419
    Gender:
    Male
    4892Встаньте на раздачу
    Вверху есть кнопка (ПОЗВАТЬ СКАЧАВШИХ)
    11-Jan-2016 13:14 (after 14 minutes)


You cannot post new topics in this forum
You cannot reply to topics in this forum
You cannot edit your posts in this forum
You cannot delete your posts in this forum
You cannot vote in polls in this forum
You cannot attach files in this forum
You cannot download files in this forum