«War never ends quietly»-- Информация о фильме
Название: Ярость
Оригинальное название: Fury
Год выхода: 2014
Жанр: Боевик, Драма, Военный
Режиссер: Дэвид Эйр
Сценарий: Дэвид Эйр
В ролях: Брэд Питт, Логан Лерман, Шайа ЛаБаф, Майкл Пенья, Джон Бернтал, Джейсон Айзекс, Джим Пэррак, Брэд Уильям Хенке, Кевин Вэнс, Завьер Сэмюэл, Анамария Маринка, Скотт Иствуд
----О фильме:
Стоит апрель 1945 года, и победа над немцами уже близка: союзники уверенно продвигаются вглубь вражеской территории, и оказываемое им сопротивление становится слабее день ото дня. Это, однако, совсем не значит, что на пути к победе союзные войска не потеряют еще множество людей, и многие солдаты сознают, что смерть ждет на расстоянии вытянутой руки. Среди закаленных в бою пессимистов, каждый день ведущих ожесточенные бои во имя победы, экипаж танка, на чьем дуле намалевано слово «Ярость».
Командир экипажа, известный как Уордэдди, воевавший с нацистскими войсками сначала в Африке, а потом в Европе, преследует одну цель — выжить в войне и сохранить жизнь своим людям. Этот относительно амбициозный план оказывается под угрозой, когда к его экипажу присоединяется зеленый новобранец Норман Эллисон, никогда раньше не воевавший и еще не успевший привыкнуть к тому, что должен быстро и без колебаний обрывать человеческие жизни. Надежда выжить становится совсем призрачной, когда экипажу «Ярости» приходится принять участие в самоубийственной миссии.
- - Страна: Великобритания, США, Китай
Продолжительность: 02:14:38
--Файл
Кодек: MPEG4/ISO/AVC H.264
Формат: MKV
Качество: WEB-DLRip
Видео:
1280x534 | 59.940 fps | 4428 Kbps -- Аудио 1: AC3 | 2.0 | 48 kHz | 384 kbps | 16 bit |Дубляж "Чистый звук"|
Аудио 3: AC3 | 5.1 | 48 kHz | 384 kbps | 16 bit |English Original|
Аудио 3: AAC | 2.0 | 48 kHz | 156 kbps | 16 bit |English Комментарии|

MedifInfo

Video
ID : 1
Format : AVC
Format/Info : Advanced Video Codec
Format profile : High@L4.1
Format settings, CABAC : Yes
Format settings, ReFrames : 7 frames
Codec ID : V_MPEG4/ISO/AVC
Width : 1 280 pixels
Height : 534 pixels
Display aspect ratio : 2.40:1
Frame rate mode : Variable
Original frame rate : 59.940 fps
Color space : YUV
Chroma subsampling : 4:2:0
Bit depth : 8 bits
Scan type : Progressive
Title : Rip by izomsk
Writing library : x264 core 120 r2120kMod 0c7dab9
Encoding settings : cabac=1 / ref=7 / deblock=1:0:0 / analyse=0x3:0x113 / me=umh / subme=8 / psy=1 / fade_compensate=0.00 / psy_rd=1.00:0.00 / mixed_ref=1 / me_range=30 / chroma_me=1 / trellis=2 / 8x8dct=1 / cqm=0 / deadzone=21,11 / fast_pskip=0 / chroma_qp_offset=-2 / threads=6 / sliced_threads=1 / slices=6 / nr=0 / decimate=1 / interlaced=0 / bluray_compat=0 / constrained_intra=0 / bframes=9 / b_pyramid=2 / b_adapt=2 / b_bias=0 / direct=1 / weightb=1 / open_gop=0 / weightp=2 / keyint=600 / keyint_min=59 / scenecut=40 / intra_refresh=0 / rc=crf / mbtree=0 / crf=15.0000 / qcomp=0.60 / qpmin=10 / qpmax=51 / qpstep=4 / ip_ratio=1.40 / pb_ratio=1.30 / aq=1:1.00
Language : English
Default : Yes
Forced : Yes
Audio #1
ID : 2
Format : AC-3
Format/Info : Audio Coding 3
Mode extension : CM (complete main)
Format settings, Endianness : Big
Codec ID : A_AC3
Duration : 2h 14mn
Bit rate mode : Constant
Bit rate : 384 Kbps
Channel(s) : 2 channels
Channel positions : Front: L R
Sampling rate : 48.0 KHz
Bit depth : 16 bits
Compression mode : Lossy
Delay relative to video : 500ms
Stream size : 370 MiB (7%)
Language : Russian
Default : Yes
Forced : Yes
Audio #2
ID : 3
Format : AC-3
Format/Info : Audio Coding 3
Mode extension : CM (complete main)
Format settings, Endianness : Big
Codec ID : A_AC3
Duration : 2h 14mn
Bit rate mode : Constant
Bit rate : 384 Kbps
Channel(s) : 6 channels
Channel positions : Front: L C R, Side: L R, LFE
Sampling rate : 48.0 KHz
Bit depth : 16 bits
Compression mode : Lossy
Delay relative to video : 500ms
Stream size : 370 MiB (7%)
Language : English
Default : No
Forced : No
Audio #3
ID : 4
Format : AAC
Format/Info : Advanced Audio Codec
Format profile : LC
Codec ID : A_AAC
Duration : 2h 14mn
Channel(s) : 2 channels
Channel positions : Front: L R
Sampling rate : 48.0 KHz
Compression mode : Lossy
Delay relative to video : 500ms
Language : English
Default : No
Forced : No
Автор рипа - izomsk

[Цитировать]
izomsk

KRYL спасибо за помошь!

[Цитировать]
Kryl

1470KRYL спасибо за помошь!
:aa:

[Цитировать]
mimok

izomsk, а Патруль времени будет?

[Цитировать]
izomsk

Сделал. Выложу.

[Цитировать]
Fragrance

Класс ) Спасибо)

[Цитировать]
Mazer_Kazan

Господа, по чесноку... есть титры на русском языке, когда герои говорят на немецком?

[Цитировать]
Kryl

1678Господа, по чесноку... есть титры на русском языке, когда герои говорят на немецком?
Не смотрел ....

[Цитировать]
mimok

1678Господа, по чесноку... есть титры на русском языке, когда герои говорят на немецком?
в релизе нет субтитров никаких (сам не смотрел)

[Цитировать]
Prizrak

Есть же дубляж AC3-5.1ch, iTunes Russia.

[Цитировать]
karen4421

Спасибо!!!

[Цитировать]
markito73

thanks friend
 
Показать сообщения:    

Текущее время: 10-Дек 19:38

Часовой пояс: UTC + 3


Вы не можете начинать темы
Вы не можете отвечать на сообщения
Вы не можете редактировать свои сообщения
Вы не можете удалять свои сообщения
Вы не можете голосовать в опросах
Вы не можете прикреплять файлы к сообщениям
Вы не можете скачивать файлы