Топ Топиков за 24 часа
 
Джон Уик 2 / John Wick: Chapter Two (2017) BDRip 720p | 60 fps Форсаж 8 / The Fate of the Furious (2017) BDRip 1080p | 60 fps Стражи Галактики. Часть 2 / Guardians of the Galaxy Vol. 2 (2017) BDRip 1080p | 60 fps Великая стена / The Great Wall (2016) BDRip 1080p | 60 fps Призрак в доспехах / Ghost in the Shell (2017) BDRip 1080p | 60 fps Форсаж 8 / The Fate of the Furious (2017) BDRip 720p | 60 fps Варкрафт / Warcraft (2016) BDRip 1080p | 60 fps Доктор Стрэндж / Doctor Strange (2016) BDRip 1080p | 60 fps Конг: Остров черепа / Kong: Skull Island (2017) BDRip 1080p | 60 fps Аватар / Avatar (2009) BDRip 1080p | 120 fps | Extended Collector's Cut | Experimental Чужой: Завет / Alien: Covenant (2016) BDRip 720p | 60 fps Кредо убийцы / Assassin's Creed (2016) BDRip 1080p | 60 fps
  1. bot

    Стаж:
    3 года 1 месяц
    Сообщений:
    413
    Пол:
    Не указан
    «War never ends quietly»-- Информация о фильме
    Название: Ярость
    Оригинальное название: Fury
    Год выхода: 2014
    Жанр: Боевик, Драма, Военный
    Режиссер: Дэвид Эйр
    Сценарий: Дэвид Эйр
    В ролях: Брэд Питт, Логан Лерман, Шайа ЛаБаф, Майкл Пенья, Джон Бернтал, Джейсон Айзекс, Джим Пэррак, Брэд Уильям Хенке, Кевин Вэнс, Завьер Сэмюэл, Анамария Маринка, Скотт Иствуд
    ----О фильме:
    Стоит апрель 1945 года, и победа над немцами уже близка: союзники уверенно продвигаются вглубь вражеской территории, и оказываемое им сопротивление становится слабее день ото дня. Это, однако, совсем не значит, что на пути к победе союзные войска не потеряют еще множество людей, и многие солдаты сознают, что смерть ждет на расстоянии вытянутой руки. Среди закаленных в бою пессимистов, каждый день ведущих ожесточенные бои во имя победы, экипаж танка, на чьем дуле намалевано слово «Ярость».
    Командир экипажа, известный как Уордэдди, воевавший с нацистскими войсками сначала в Африке, а потом в Европе, преследует одну цель — выжить в войне и сохранить жизнь своим людям. Этот относительно амбициозный план оказывается под угрозой, когда к его экипажу присоединяется зеленый новобранец Норман Эллисон, никогда раньше не воевавший и еще не успевший привыкнуть к тому, что должен быстро и без колебаний обрывать человеческие жизни. Надежда выжить становится совсем призрачной, когда экипажу «Ярости» приходится принять участие в самоубийственной миссии.
    - - Страна: Великобритания, США, Китай
    Продолжительность: 02:14:38
    --Файл
    Кодек: MPEG4/ISO/AVC H.264
    Формат: MKV
    Качество: WEB-DLRip
    Видео:
    1280x534 | 59.940 fps | 4428 Kbps -- Аудио 1: AC3 | 2.0 | 48 kHz | 384 kbps | 16 bit |Дубляж "Чистый звук"|
    Аудио 3: AC3 | 5.1 | 48 kHz | 384 kbps | 16 bit |English Original|
    Аудио 3: AAC | 2.0 | 48 kHz | 156 kbps | 16 bit |English Комментарии|

    MedifInfo

    Video
    ID : 1
    Format : AVC
    Format/Info : Advanced Video Codec
    Format profile : High@L4.1
    Format settings, CABAC : Yes
    Format settings, ReFrames : 7 frames
    Codec ID : V_MPEG4/ISO/AVC
    Width : 1 280 pixels
    Height : 534 pixels
    Display aspect ratio : 2.40:1
    Frame rate mode : Variable
    Original frame rate : 59.940 fps
    Color space : YUV
    Chroma subsampling : 4:2:0
    Bit depth : 8 bits
    Scan type : Progressive
    Title : Rip by izomsk
    Writing library : x264 core 120 r2120kMod 0c7dab9
    Encoding settings : cabac=1 / ref=7 / deblock=1:0:0 / analyse=0x3:0x113 / me=umh / subme=8 / psy=1 / fade_compensate=0.00 / psy_rd=1.00:0.00 / mixed_ref=1 / me_range=30 / chroma_me=1 / trellis=2 / 8x8dct=1 / cqm=0 / deadzone=21,11 / fast_pskip=0 / chroma_qp_offset=-2 / threads=6 / sliced_threads=1 / slices=6 / nr=0 / decimate=1 / interlaced=0 / bluray_compat=0 / constrained_intra=0 / bframes=9 / b_pyramid=2 / b_adapt=2 / b_bias=0 / direct=1 / weightb=1 / open_gop=0 / weightp=2 / keyint=600 / keyint_min=59 / scenecut=40 / intra_refresh=0 / rc=crf / mbtree=0 / crf=15.0000 / qcomp=0.60 / qpmin=10 / qpmax=51 / qpstep=4 / ip_ratio=1.40 / pb_ratio=1.30 / aq=1:1.00
    Language : English
    Default : Yes
    Forced : Yes
    Audio #1
    ID : 2
    Format : AC-3
    Format/Info : Audio Coding 3
    Mode extension : CM (complete main)
    Format settings, Endianness : Big
    Codec ID : A_AC3
    Duration : 2h 14mn
    Bit rate mode : Constant
    Bit rate : 384 Kbps
    Channel(s) : 2 channels
    Channel positions : Front: L R
    Sampling rate : 48.0 KHz
    Bit depth : 16 bits
    Compression mode : Lossy
    Delay relative to video : 500ms
    Stream size : 370 MiB (7%)
    Language : Russian
    Default : Yes
    Forced : Yes
    Audio #2
    ID : 3
    Format : AC-3
    Format/Info : Audio Coding 3
    Mode extension : CM (complete main)
    Format settings, Endianness : Big
    Codec ID : A_AC3
    Duration : 2h 14mn
    Bit rate mode : Constant
    Bit rate : 384 Kbps
    Channel(s) : 6 channels
    Channel positions : Front: L C R, Side: L R, LFE
    Sampling rate : 48.0 KHz
    Bit depth : 16 bits
    Compression mode : Lossy
    Delay relative to video : 500ms
    Stream size : 370 MiB (7%)
    Language : English
    Default : No
    Forced : No
    Audio #3
    ID : 4
    Format : AAC
    Format/Info : Advanced Audio Codec
    Format profile : LC
    Codec ID : A_AAC
    Duration : 2h 14mn
    Channel(s) : 2 channels
    Channel positions : Front: L R
    Sampling rate : 48.0 KHz
    Compression mode : Lossy
    Delay relative to video : 500ms
    Language : English
    Default : No
    Forced : No
    Автор рипа - izomsk
  2. Стаж:
    3 года
    Сообщений:
    53
    Пол:
    Мужской
     
    KRYL спасибо за помошь!
  3. Стаж:
    3 года 1 месяц
    Сообщений:
    2082
    Пол:
    Мужской
     
    1470KRYL спасибо за помошь!
    :aa:
    08-Янв-2015 12:24 (спустя 24 минуты)
  4. Стаж:
    3 года 1 месяц
    Сообщений:
    311
    Пол:
    Мужской
     
    izomsk, а Патруль времени будет?
    08-Янв-2015 18:02 (спустя 5 часов)
  5. Стаж:
    3 года
    Сообщений:
    53
    Пол:
    Мужской
     
    Сделал. Выложу.
    09-Янв-2015 06:47 (спустя 12 часов)
  6. Стаж:
    2 года 10 месяцев
    Сообщений:
    48
    Пол:
    Не указан
     
    Класс ) Спасибо)
    09-Янв-2015 18:07 (спустя 11 часов)
  7. Стаж:
    2 года 10 месяцев
    Сообщений:
    11
    Пол:
    Мужской
     
    Господа, по чесноку... есть титры на русском языке, когда герои говорят на немецком?
    26-Янв-2015 21:09 (спустя 17 дней)
  8. Стаж:
    3 года 1 месяц
    Сообщений:
    2082
    Пол:
    Мужской
     
    1678Господа, по чесноку... есть титры на русском языке, когда герои говорят на немецком?
    Не смотрел ....
    26-Янв-2015 21:12 (спустя 3 минуты)
  9. Стаж:
    3 года 1 месяц
    Сообщений:
    311
    Пол:
    Мужской
     
    1678Господа, по чесноку... есть титры на русском языке, когда герои говорят на немецком?
    в релизе нет субтитров никаких (сам не смотрел)
    26-Янв-2015 21:22 (спустя 10 минут)
  10. Стаж:
    2 года 9 месяцев
    Сообщений:
    3
    Пол:
    Мужской
     
    Есть же дубляж AC3-5.1ch, iTunes Russia.
    26-Янв-2015 21:58 (спустя 35 минут)
  11. Стаж:
    2 года 8 месяцев
    Сообщений:
    1
    Пол:
    Не указан
     
    Спасибо!!!
    28-Фев-2015 18:51 (спустя 1 месяц 1 день)
  12. Стаж:
    2 года 5 месяцев
    Сообщений:
    4
    Пол:
    Не указан
     
    thanks friend
    06-Июл-2015 19:39 (спустя 4 месяца 6 дней)


Вы не можете начинать темы
Вы не можете отвечать на сообщения
Вы не можете редактировать свои сообщения
Вы не можете удалять свои сообщения
Вы не можете голосовать в опросах
Вы не можете прикреплять файлы к сообщениям
Вы не можете скачивать файлы