К звёздам / Ad Astra (2019) BDRip 1080p | 60 fps Властелин колец: Трилогия / The Lord of the Rings: Trilogy (2001-2003) BDRip-AVC | Extended Cut | 60 fps Однажды в… Голливуде / Once Upon a Time... in Hollywood (2019) BDRip 1080p | 60 fps Ван Хельсинг / Van Helsing (2004) BDRip-AVC | 60 fps Zомбилэнд: Контрольный выстрел / Zombieland: Double Tap (2019) BDRip 1080p | 60 fps Падение ангела / The Curse of La Llorona (2019) BDRip 1080p | 60 fps Паразиты / Gisaengchung (2019) BDRip 1080p | 60 fps Али, рули! / Stuber (2019) BDRip 1080p | 60 fps
  1. Longevity:
    5 years 7 months
    Posts:
    311
    Gender:
    Male
    Ярость / Fury (2014) BDRip 720p | 48fps | Hardsub«War never ends quietly»- Информация о фильме
    Название: Ярость
    Оригинальное название: Fury
    Год выхода: 2014
    Жанр: Боевик, драма, военный
    Режиссер: Дэвид Эйр
    В ролях: Брэд Питт, Логан Лерман, Шайа ЛаБаф, Майкл Пенья, Джон Бернтал, Джейсон Айзекс, Джим Пэррак, Брэд Уильям Хенке, Кевин Вэнс, Завьер Сэмюэл
    Описание фильма:
    Стоит апрель 1945 года, и победа над немцами уже близка: союзники уверенно продвигаются вглубь вражеской территории, и оказываемое им сопротивление становится слабее день ото дня. Это, однако, совсем не значит, что на пути к победе союзные войска не потеряют еще множество людей, и многие солдаты сознают, что смерть ждет на расстоянии вытянутой руки. Среди закаленных в бою пессимистов, каждый день ведущих ожесточенные бои во имя победы, экипаж танка, на чьем дуле намалевано слово «Ярость».
    Страна: Великобритания, США, Китай
    Студия: Columbia Pictures, Huayi Brothers Media, Crave Films
    Продолжительность: 02:14:38
    Перевод: Дублированный (Лицензия)
    Субтитры: Вшитые, отключаемые
    Язык субтитров: Русский (Full), Английский (Full)

    Дата мировой премьеры: 15 октября 2014
    Дата российской премьеры: 30 октября 2014, «WDSSPR»
    Дата выхода DVD релиза: 12 февраля 2015, «CP Дистрибуция»
    Дата выхода Blu-Ray релиза: 12 февраля 2015, «CP Дистрибуция»
    Файл
    Формат: MKV
    Кодек: MPEG-4 AVC/H.264
    Качество: BDRip 720p
    Видео: ~ 7160 Кбит/сек, 1280 x 544, 47.952 кадров/сек
    Аудио: AC3 5.1, 48.0 KHz, 640 Кбит/сек - Русский

    MediaInfo

    Общее
    Уникальный идентификатор : 221965887496316476533135910659663863827 (0xA6FD132F04377D4DB9449975CF282013)
    Полное имя : D:\Торренты\Fury 48fps.mkv
    Формат : Matroska
    Версия формата : Version 2
    Размер файла : 7,48 Гбайт
    Продолжительность : 2 ч. 14 м.
    Общий поток : 7958 Кбит/сек
    Название фильма : Fury (2014) Blu-ray EUR 1080p
    Дата кодирования : UTC 2015-02-11 17:06:42
    Программа кодирования : mkvmerge v6.9.1 ('Blue Panther') 64bit built on Apr 18 2014 18:23:38
    Библиотека кодирования : libebml v1.3.0 + libmatroska v1.4.1
    Видео
    Идентификатор : 1
    Формат : AVC
    Формат/Информация : Advanced Video Codec
    Профиль формата : High@L4.1
    Параметр CABAC формата : Да
    Параметр ReFrames формата : 6 кадров
    Идентификатор кодека : V_MPEG4/ISO/AVC
    Продолжительность : 2 ч. 14 м.
    Битрейт : 7160 Кбит/сек
    Ширина : 1280 пикселей
    Высота : 544 пикселя
    Соотношение сторон : 2,35:1
    Режим частоты кадров : Постоянный
    Частота кадров : 47,952 кадров/сек
    Цветовое пространство : YUV
    Субдискретизация насыщенности : 4:2:0
    Битовая глубина : 8 бит
    Тип развёртки : Прогрессивная
    Бит/(Пиксели*Кадры) : 0.214
    Размер потока : 6,73 Гбайт (90%)
    Заголовок : Release by mimok
    Библиотека кодирования : x264 core 130 r2273 b3065e6
    Настройки программы : cabac=1 / ref=6 / deblock=1:0:0 / analyse=0x3:0x133 / me=umh / subme=8 / psy=1 / psy_rd=1.00:0.15 / mixed_ref=1 / me_range=20 / chroma_me=1 / trellis=2 / 8x8dct=1 / cqm=0 / deadzone=21,11 / fast_pskip=0 / chroma_qp_offset=-3 / threads=6 / lookahead_threads=2 / sliced_threads=0 / nr=0 / decimate=0 / interlaced=0 / bluray_compat=0 / constrained_intra=0 / bframes=8 / b_pyramid=2 / b_adapt=2 / b_bias=0 / direct=1 / weightb=1 / open_gop=0 / weightp=2 / keyint=250 / keyint_min=25 / scenecut=40 / intra_refresh=0 / rc=crf / mbtree=0 / crf=18.0 / qcomp=0.63 / qpmin=10 / qpmax=51 / qpstep=4 / ip_ratio=1.40 / pb_ratio=1.30 / aq=1:1.20
    Default : Да
    Forced : Нет
    Аудио
    Идентификатор : 2
    Формат : AC-3
    Формат/Информация : Audio Coding 3
    Расширение режима : CM (complete main)
    Параметр Endianness формата : Big
    Идентификатор кодека : A_AC3
    Продолжительность : 2 ч. 14 м.
    Вид битрейта : Постоянный
    Битрейт : 640 Кбит/сек
    Каналы : 6 каналов
    Расположение каналов : Front: L C R, Side: L R, LFE
    Частота : 48,0 КГц
    Битовая глубина : 16 бит
    Метод сжатия : С потерями
    Размер потока : 616 Мбайт (8%)
    Заголовок : Dub
    Язык : Russian
    Default : Да
    Forced : Нет
    Текст #1
    Идентификатор : 3
    Формат : UTF-8
    Идентификатор кодека : S_TEXT/UTF8
    Идентификатор кодека/Информация : UTF-8 Plain Text
    Заголовок : Full BD
    Язык : Russian
    Default : Да
    Forced : Нет
    Текст #2
    Идентификатор : 4
    Формат : UTF-8
    Идентификатор кодека : S_TEXT/UTF8
    Идентификатор кодека/Информация : UTF-8 Plain Text
    Заголовок : Full
    Язык : English
    Default : Нет
    Forced : Нет

    Скринлист

    Скриншоты:

    Release was prepared by 60 - fps



You cannot post new topics in this forum
You cannot reply to topics in this forum
You cannot edit your posts in this forum
You cannot delete your posts in this forum
You cannot vote in polls in this forum
You cannot attach files in this forum
You cannot download files in this forum