[Цитировать]
mimok

Яблочное зёрнышко: Проект Альфа / Appleseed Alpha (2014) BDRip 720p | 60fps- Год выпуска: 2014
Производство: Япония, США / Lucent Pictures Entertainment, Sola Digital Arts
Жанр: Мультфильм, Боевик, Приключения, Фантастика-Режиссер: Синдзи Арамаки
Продюсер: Джозеф Чоу, Джои Гобео, Эйчи Камагата
Актеры: Люси Кристиан, Дэвид Матранга, Элизабет Банч, Вендел Кэлверт, Адам Гиббс, Крис Хатчинсон, Брина Паленсиа-Описание фильма:
На основе комиксов, от создателя Призрак в доспехах, молодой солдат Дюнан и киборг Бриарей, пережив третью мировую войну, путешествуют по апокалиптическому Нью-Йорку, в поисках легендарного города Олимпа, будущего оплота человечества.-Перевод: Профессиональный (многоголосый закадровый) (iTunes Russia)
Субтитры: Вшитые, отключаемые
Язык субтитров: Русский (Full)- -Дата мировой премьеры: 2 июля 2014-Продолжительность: 01:33:15
Качество видео: BDRip 720p-Видеокодек: MPEG-4 AVC/H.264
Битрейт видео: ~ 10,1 Мбит/сек
Размер кадра: 1280 x 720
Аудио#1: AC3 5.1, 48.0 KHz, 384 Kbps - Русский
Аудио#2: AC3 5.1, 48.0 KHz, 640 Kbps - Английский-MediaInfo:
Общее
Уникальный идентификатор : 229271399294982828391167028244759812644 (0xAC7C10B96D11B181A923562839999A24)
Полное имя : D:\Торренты\Appleseed Alpha 60fps.org.mkv
Формат : Matroska
Версия формата : Version 2
Размер файла : 7,39 Гбайт
Продолжительность : 1 ч. 33 м.
Общий поток : 11,4 Мбит/сек
Название фильма : Appleseed Alpha (2014) BDRemux [1080p]
Дата кодирования : UTC 2014-10-12 16:37:49
Программа кодирования : mkvmerge v6.9.1 ('Blue Panther') 64bit built on Apr 18 2014 18:23:38
Библиотека кодирования : libebml v1.3.0 + libmatroska v1.4.1
Видео
Идентификатор : 1
Формат : AVC
Формат/Информация : Advanced Video Codec
Профиль формата : High@L4.1
Параметр CABAC формата : Да
Параметр ReFrames формата : 6 кадров
Идентификатор кодека : V_MPEG4/ISO/AVC
Продолжительность : 1 ч. 33 м.
Битрейт : 10,1 Мбит/сек
Ширина : 1280 пикселей
Высота : 720 пикселей
Соотношение сторон : 16:9
Режим частоты кадров : Постоянный
Частота кадров : 59,880 кадров/сек
Частота кадров в оригинале : 59,940 кадров/сек
Цветовое пространство : YUV
Субдискретизация насыщенности : 4:2:0
Битовая глубина : 8 бит
Тип развёртки : Прогрессивная
Бит/(Пиксели*Кадры) : 0.183
Размер потока : 6,58 Гбайт (89%)
Заголовок : Release by mimok
Библиотека кодирования : x264 core 125 r2208 d9d2288
Настройки программы : cabac=1 / ref=6 / deblock=1:1:1 / analyse=0x3:0x133 / me=umh / subme=8 / psy=1 / psy_rd=1.00:0.15 / mixed_ref=1 / me_range=20 / chroma_me=1 / trellis=2 / 8x8dct=1 / cqm=0 / deadzone=21,11 / fast_pskip=0 / chroma_qp_offset=-3 / threads=6 / lookahead_threads=1 / sliced_threads=0 / nr=0 / decimate=0 / interlaced=0 / bluray_compat=0 / constrained_intra=0 / bframes=7 / b_pyramid=2 / b_adapt=2 / b_bias=0 / direct=1 / weightb=1 / open_gop=0 / weightp=2 / keyint=600 / keyint_min=59 / scenecut=40 / intra_refresh=0 / rc=crf / mbtree=0 / crf=17.0 / qcomp=0.63 / qpmin=10 / qpmax=51 / qpstep=4 / ip_ratio=1.40 / pb_ratio=1.30 / aq=1:1.20
Default : Да
Forced : Нет
Аудио #1
Идентификатор : 2
Формат : AC-3
Формат/Информация : Audio Coding 3
Расширение режима : CM (complete main)
Параметр Endianness формата : Big
Идентификатор кодека : A_AC3
Продолжительность : 1 ч. 33 м.
Вид битрейта : Постоянный
Битрейт : 384 Кбит/сек
Каналы : 6 каналов
Расположение каналов : Front: L C R, Side: L R, LFE
Частота : 48,0 КГц
Битовая глубина : 16 бит
Метод сжатия : С потерями
Размер потока : 256 Мбайт (3%)
Заголовок : MVO «iTunes Russia»
Язык : Russian
Default : Да
Forced : Нет
Аудио #2
Идентификатор : 3
Формат : AC-3
Формат/Информация : Audio Coding 3
Расширение режима : CM (complete main)
Параметр Endianness формата : Big
Идентификатор кодека : A_AC3
Продолжительность : 1 ч. 33 м.
Вид битрейта : Постоянный
Битрейт : 640 Кбит/сек
Каналы : 6 каналов
Расположение каналов : Front: L C R, Side: L R, LFE
Частота : 48,0 КГц
Битовая глубина : 16 бит
Метод сжатия : С потерями
Размер потока : 427 Мбайт (6%)
Заголовок : original
Язык : English
Default : Нет
Forced : Нет
Текст
Идентификатор : 4
Формат : UTF-8
Идентификатор кодека : S_TEXT/UTF8
Идентификатор кодека/Информация : UTF-8 Plain Text
Заголовок : Full
Язык : Russian
Default : Да
Forced : Нет
Скринлист:
Скриншоты:

[Цитировать]
VinceRage

Встаньте на раздачу, пожалуйста)

[Цитировать]
Kryl

4739Встаньте на раздачу, пожалуйста)
Есть кнопка позвать скачавших

[Цитировать]
mimok

VinceRage, качайте

[Цитировать]
vigro

"Встаньте на раздачу, пожалуйста)" присоединяюсь )
на кнопку жамкал всю неделю, ноль результата Плачу

[Цитировать]
Kryl

mimok, Стань на раздачу !!! Улыбаюсь
 
Показать сообщения:    

Текущее время: 06-Дек 15:10

Часовой пояс: UTC + 3


Вы не можете начинать темы
Вы не можете отвечать на сообщения
Вы не можете редактировать свои сообщения
Вы не можете удалять свои сообщения
Вы не можете голосовать в опросах
Вы не можете прикреплять файлы к сообщениям
Вы не можете скачивать файлы