[Цитировать]
Kryl

Я плюю на ваши могилы / I Spit on Your Grave

«It's Date Night»- Информация о фильме
Название: Я плюю на ваши могилы
Оригинальное название: I Spit on Your Grave
Год выхода: 2010
Жанр: Ужасы, триллер, криминал
Режиссер: Стивен Р. Монро
Сценарий: Адам Рокофф, Мейр Зарки
Продюсер: Пол Хертцберг, Билл Берри, Сара Дж. Донохью
В ролях: Сара Батлер, Джефф Брэнсон, Эндрю Ховард, Дэниел Фрэнзиси, Родни Истман, Чэд Линдберг, Трейси Уолтер, Молли Миллиган, Саксон Шарбино, Эмбер Даун Лэндрум, Роли дублировали:, Татьяна Шитова, Михаил Георгиу
--О фильме:
Молодая писательница Дженнифер снимает домик в глухом лесу, чтобы в уединении написать роман. Но издатель не дождется нового бестселлера… Четверо местных отморозков жестоко насилуют девушку и обрекают ее на мучительную смерть. Но Дженнифер сумела выжить и теперь ее единственная цель — месть. И месть эта будет столь ужасной, что бывшие насильники проклянут тот день, когда встретили ее впервые…- - Страна: США
Продолжительность: 01:48:14
-- Файл
Кодек: MPEG4/ISO/AVC H.264
Формат: MKV
Качество: BDRip-AVC
Видео: 1024x432 (2.35:1) | at 59,940 fps | ~ 4.5 Мбит/сек
Аудио: AC3 | 5.1 | 48 kHz | 640 kbps | 16 bit | Дубляж |

MedifInfo

Video
ID : 1
Format : AVC
Format/Info : Advanced Video Codec
Format profile : High@L4.1
Format settings, CABAC : Yes
Format settings, ReFrames : 9 frames
Codec ID : V_MPEG4/ISO/AVC
Duration : 1h 48mn
Bit rate : 4 520 Kbps
Width : 1 024 pixels
Height : 432 pixels
Display aspect ratio : 2.35:1
Frame rate : 59.940 fps
Color space : YUV
Chroma subsampling : 4:2:0
Bit depth : 8 bits
Scan type : Progressive
Bits/(Pixel*Frame) : 0.170
Stream size : 3.34 GiB (86%)
Writing library : x264 core 146 r2538 121396c
Encoding settings : cabac=1 / ref=9 / deblock=1:0:0 / analyse=0x3:0x113 / me=umh / subme=9 / psy=1 / psy_rd=0.00:0.00 / mixed_ref=1 / me_range=42 / chroma_me=1 / trellis=2 / 8x8dct=1 / cqm=0 / deadzone=21,11 / fast_pskip=1 / chroma_qp_offset=0 / threads=12 / lookahead_threads=1 / sliced_threads=0 / nr=0 / decimate=1 / interlaced=0 / bluray_compat=0 / constrained_intra=0 / bframes=16 / b_pyramid=2 / b_adapt=1 / b_bias=0 / direct=1 / weightb=1 / open_gop=0 / weightp=2 / keyint=250 / keyint_min=25 / scenecut=40 / intra_refresh=0 / rc=2pass / mbtree=0 / bitrate=4520 / ratetol=1.0 / qcomp=0.60 / qpmin=0 / qpmax=69 / qpstep=4 / cplxblur=20.0 / qblur=0.5 / ip_ratio=1.40 / pb_ratio=1.30 / aq=1:1.00
Language : English
Default : Yes
Forced : No
Audio
ID : 2
Format : AC-3
Format/Info : Audio Coding 3
Mode extension : CM (complete main)
Codec ID : A_AC3
Duration : 1h 48mn
Bit rate mode : Constant
Bit rate : 640 Kbps
Channel(s) : 6 channels
Channel positions : Front: L C R, Side: L R, LFE
Sampling rate : 48.0 KHz
Bit depth : 16 bits
Compression mode : Lossy
Stream size : 495 MiB (12%)
Language : Russian
Default : Yes
Forced : No
--

Я плюю на ваши могилы 2 / I Spit on Your Grave 2

«Выжить, чтобы отомстить»- Информация о фильме
Название: Я плюю на ваши могилы 2
Оригинальное название: I Spit on Your Grave 2
Год выхода: 2013
Жанр: Ужасы, триллер, криминал
Режиссер: Стивен Р. Монро
Сценарий: Нил Элман, Томас Х. Фентон
Продюсер: Лиза М. Хансен, Пол Хертцберг, Билл Берри
В ролях: Джемма Даллендер, Явор Бахаров, Джо Эбсолом, Александр Алексеев, Мэри Стокли, Валентин Пелка, Георг Златарев, Питер Сильверлиф, Майкл Диксон, Кейси Барнфилд
--О фильме:
Красавица Кэти только что переехала в Нью-Йорк, чтобы сделать карьеру модели. Но девичьи мечты о роскошной жизни разбиваются: ее насилуют, пытают, а вскоре похищают и увозят в непонятном направлении. Кэти оказывается одна в чужой стране, где ее почти что похоронят заживо. Чудом избежав смерти, девушка решает жестоко отомстить обидчикам…- - Страна: США
Продолжительность: 01:46:19
-- Файл
Кодек: MPEG4/ISO/AVC H.264
Формат: MKV
Качество: BDRip-AVC
Видео: 1024x424 (2.40:1) | at 59,940 fps | ~ 4.8 Мбит/сек
Аудио: AC3 | 5.1 | 48 kHz | 448 kbps | 16 bit | Профессиональный многоголосый |

MedifInfo

Video
ID : 1
Format : AVC
Format/Info : Advanced Video Codec
Format profile : High@L4.1
Format settings, CABAC : Yes
Format settings, ReFrames : 9 frames
Codec ID : V_MPEG4/ISO/AVC
Duration : 1h 46mn
Bit rate : 4 802 Kbps
Width : 1 024 pixels
Height : 424 pixels
Display aspect ratio : 2.40:1
Frame rate : 59.940 fps
Color space : YUV
Chroma subsampling : 4:2:0
Bit depth : 8 bits
Scan type : Progressive
Bits/(Pixel*Frame) : 0.185
Stream size : 3.49 GiB (89%)
Writing library : x264 core 146 r2538 121396c
Encoding settings : cabac=1 / ref=9 / deblock=1:0:0 / analyse=0x3:0x113 / me=umh / subme=9 / psy=1 / psy_rd=0.00:0.00 / mixed_ref=1 / me_range=42 / chroma_me=1 / trellis=2 / 8x8dct=1 / cqm=0 / deadzone=21,11 / fast_pskip=1 / chroma_qp_offset=0 / threads=12 / lookahead_threads=1 / sliced_threads=0 / nr=0 / decimate=1 / interlaced=0 / bluray_compat=0 / constrained_intra=0 / bframes=16 / b_pyramid=2 / b_adapt=1 / b_bias=0 / direct=1 / weightb=1 / open_gop=0 / weightp=2 / keyint=250 / keyint_min=25 / scenecut=40 / intra_refresh=0 / rc=2pass / mbtree=0 / bitrate=4802 / ratetol=1.0 / qcomp=0.60 / qpmin=0 / qpmax=69 / qpstep=4 / cplxblur=20.0 / qblur=0.5 / ip_ratio=1.40 / pb_ratio=1.30 / aq=1:1.00
Language : English
Default : Yes
Forced : No
Audio
ID : 2
Format : AC-3
Format/Info : Audio Coding 3
Mode extension : CM (complete main)
Codec ID : A_AC3
Duration : 1h 46mn
Bit rate mode : Constant
Bit rate : 448 Kbps
Channel(s) : 6 channels
Channel positions : Front: L C R, Side: L R, LFE
Sampling rate : 48.0 KHz
Bit depth : 16 bits
Compression mode : Lossy
Stream size : 341 MiB (9%)
Default : Yes
Forced : No
[60-fps.org].t954.torrent
Торрент: Зарегистрирован [ 2015-08-09 19:43 ] · 2A8ED9E9EBE1660990B3A1655DE0E1D0E6934FE7

Скачать .torrent

Скачать

20 KB

Статус: проверено
Скачан: 39 раз
Поблагодарили:
Размер: 7,8 GB
 
 
Показать сообщения:    

Текущее время: 24-Фев 02:25

Часовой пояс: UTC + 3


Вы не можете начинать темы
Вы не можете отвечать на сообщения
Вы не можете редактировать свои сообщения
Вы не можете удалять свои сообщения
Вы не можете голосовать в опросах
Вы не можете прикреплять файлы к сообщениям
Вы можете скачивать файлы