[Цитировать]
Талямба

Фильм «In the battle between good and evil, an immortal holds the key» Фильм- Информация
Название: Я, Франкенштейн
Оригинальное название: I, Frankenstein
Год выхода: 2013
Жанр: фэнтези, боевик, приключения,
Режиссер: Стюарт Битти
Сценарий: Стюарт Битти, Кевин Гревье, Мэри Шелли
Продюсер: Сидни Киммел, Гари Лучези, Эндрю Мэйсон
В ролях: Аарон Экхарт,Ивонн Страховски,Миранда Отто,Билл Найи,Джай Кортни,Сократис Отто,Аден Янг,Кэйтлин Стэйси,Махеш Джаду,Стив Музакис
--Сюжет:
Он — монстр. Он — двухсотлетний плод безумной фантазии своего создателя. Он — легенда. Мир, в котором он живет, населен древними горгульями и бессмертными демонами, которые сражаются за обладание человечеством. Величественные соборы скрывают огромные арсеналы, за дверьми научных лабораторий проводятся эксперименты по воскрешению мертвых. Война двух кланов могущественных существ достигает своего пика. И только он, Адам, монстр Франкенштейна, в силах ее остановить.-- Страна: Австралия, США
Продолжительность: 01:33:03

Файл
Кодек: MPEG4/ISO/AVC H.264
Формат: MKV
Качество: BDRip 1080p | 60 fps
Видео: 1920 x 804 (2.388) | 59.880 fps | 13,1 Мбит/сек
Аудио 1: AC3 | 6 каналов | 48 kHz | 640 kbps | 16 bit | Дубляж |
Субтитры: Russian

MedifInfo

Видео
Идентификатор : 1
Формат : AVC
Формат/Информация : Advanced Video Codec
Профиль формата : High@L4.1
Параметр CABAC формата : Да
Параметр ReFrames формата : 5 кадров
Идентификатор кодека : V_MPEG4/ISO/AVC
Продолжительность : 1 ч. 33 м.
Битрейт : 12,5 Мбит/сек
Ширина : 1920 пикселей
Высота : 804 пикселя
Соотношение сторон : 2,40:1
Режим частоты кадров : Постоянный
Частота кадров : 59,880 кадров/сек
Частота кадров в оригинале : 59,940 кадров/сек
Цветовое пространство : YUV
Субдискретизация насыщенности : 4:2:0
Битовая глубина : 8 бит
Тип развёртки : Прогрессивная
Бит/(Пиксели*Кадры) : 0.135
Размер потока : 7,93 Гбайт (93%)
Заголовок : Я, Франкенштейн.(2014).BDRip.1080p.[envy].[60fps]
Библиотека кодирования : x264 core 140 r2377 1ca7bb9
Настройки программы : cabac=1 / ref=5 / deblock=1:-3:-2 / analyse=0x3:0x133 / me=umh / subme=11 / psy=1 / psy_rd=1.00:0.00 / mixed_ref=1 / me_range=32 / chroma_me=1 / trellis=2 / 8x8dct=1 / cqm=0 / deadzone=21,11 / fast_pskip=0 / chroma_qp_offset=-2 / threads=12 / lookahead_threads=1 / sliced_threads=0 / nr=0 / decimate=1 / interlaced=0 / bluray_compat=0 / constrained_intra=0 / bframes=6 / b_pyramid=2 / b_adapt=2 / b_bias=0 / direct=3 / weightb=1 / open_gop=0 / weightp=2 / keyint=250 / keyint_min=25 / scenecut=40 / intra_refresh=0 / rc=2pass / mbtree=0 / bitrate=12506 / ratetol=2.0 / qcomp=0.60 / qpmin=0 / qpmax=69 / qpstep=4 / cplxblur=20.0 / qblur=0.5 / ip_ratio=1.40 / pb_ratio=1.30 / aq=2:0.70
Язык : English
Default : Да
Forced : Нет
Аудио
Идентификатор : 2
Формат : AC-3
Формат/Информация : Audio Coding 3
Расширение режима : CM (complete main)
Параметр Endianness формата : Big
Идентификатор кодека : A_AC3
Продолжительность : 1 ч. 33 м.
Вид битрейта : Постоянный
Битрейт : 640 Кбит/сек
Каналы : 6 каналов
Расположение каналов : Front: L C R, Side: L R, LFE
Частота : 48,0 КГц
Битовая глубина : 16 бит
Метод сжатия : С потерями
Размер потока : 426 Мбайт (5%)
Заголовок : Dub
Язык : Russian
Default : Да
Forced : Нет
Текст
Идентификатор : 3
Формат : UTF-8
Идентификатор кодека : S_TEXT/UTF8
Идентификатор кодека/Информация : UTF-8 Plain Text
Заголовок : rus full
Язык : Russian
Default : Нет
Forced : Нет
Меню
00:00:00.000 : en:00:00:00.000
00:12:24.077 : en:00:12:24.077
00:22:07.785 : en:00:22:07.785
00:33:21.958 : en:00:33:21.958
00:44:51.772 : en:00:44:51.772
00:56:45.527 : en:00:56:45.527
01:07:12.487 : en:01:07:12.487
01:21:14.661 : en:01:21:14.661


Последний раз редактировалось: Талямба (2016-10-05 12:12), всего редактировалось 3 раз(а)
 
Показать сообщения:    

Текущее время: 08-Дек 09:01

Часовой пояс: UTC + 3


Вы не можете начинать темы
Вы не можете отвечать на сообщения
Вы не можете редактировать свои сообщения
Вы не можете удалять свои сообщения
Вы не можете голосовать в опросах
Вы не можете прикреплять файлы к сообщениям
Вы не можете скачивать файлы