1. Longevity:
    4 years 11 months
    Posts:
    339
    Gender:
    Male
    Within Temptation: Let Us Burn - Elements & Hydra Live In Concert (2014) BDRemux | 60 fps Информация о Клипе
    Исполнитель: Within Temptation
    Название: Let Us Burn - Elements & Hydra Live In Concert
    Год выхода: 2014
    Продолжительность: 02:51:33
    Файл
    Кодек: MPEG4/ISO/AVC/ H.264
    Формат: MKV
    Качество: BDRemux 1080p
    Видео: 1920 x 1080 (16:9) at 60,000 fps 25.0 Мбит/сек
    Аудио1: AC3, 2 ch, 192 Кбит/с
    Аудио2: AC3, 6 ch, 448 Кбит/с
    Треклист:
    Elements Concert:
    01 Iron
    02 In The Middle Of The Night
    03 Faster
    04 Fire And Ice
    05 Our Solemn Hour
    06 Stand My Ground
    07 Angels
    08 Sanctuary
    09 The Last Dance
    10 Say My Name
    11 Candles
    12 Sinead
    13 The Promise
    14 Mother Earth
    15 Ice Queen
    16 Stairway To The Skies
    Hydra Concert:
    01 Let Us Burn
    02 Paradise (What About Us?)
    03 Faster
    04 Iron
    05 Edge Of The World
    06 In The Middle Of The Night
    07 Dangerous
    08 And We Run
    09 Stand My Ground
    10 Covered By Roses
    11 Mother Earth
    12 What Have You Done
    13 Silver Moonlight
    14 Whole World Is Watching
    15 Sinead
    16 Ice Queen

    MI

    Общее
    Уникальный идентификатор : 194448692193787071276397428566745318318 (0x924974B57D0FEB9B8569C40411A283AE)
    Полное имя : H:\Clips\Concert\Within Temptation - Let Us Burn.2014.BDRemux.1080p.60fps.mkv
    Формат : Matroska
    Версия формата : Version 2
    Размер файла : 30,7 Гбайт
    Продолжительность : 2 ч. 51 м.
    Общий поток : 25,6 Мбит/сек
    Название фильма : Within Temptation: Let Us Burn 2014 https://60-fps.org/
    Дата кодирования : UTC 2021-07-13 19:14:56
    Программа кодирования : mkvmerge v5.8.0 ('No Sleep / Pillow') built on Sep 2 2012 15:37:04
    Библиотека кодирования : libebml v1.2.3 + libmatroska v1.3.0
    Видео
    Идентификатор : 1
    Формат : AVC
    Формат/Информация : Advanced Video Codec
    Профиль формата : High@L4.1
    Параметр CABAC формата : Да
    Параметр ReFrames формата : 4 кадра
    Режим смешивания : Header stripping
    Идентификатор кодека : V_MPEG4/ISO/AVC
    Продолжительность : 2 ч. 51 м.
    Битрейт : 25,0 Мбит/сек
    Ширина : 1920 пикселей
    Высота : 1080 пикселей
    Соотношение сторон : 16:9
    Режим частоты кадров : Постоянный
    Частота кадров : 60,000 кадров/сек
    Цветовое пространство : YUV
    Субдискретизация насыщенности : 4:2:0
    Битовая глубина : 8 бит
    Тип развёртки : Прогрессивная
    Бит/(Пиксели*Кадры) : 0.201
    Размер потока : 29,3 Гбайт (96%)
    Библиотека кодирования : x264 core 146 r2538 121396c
    Настройки программы : cabac=1 / ref=4 / deblock=1:0:0 / analyse=0x3:0x113 / me=umh / subme=8 / psy=1 / psy_rd=1.00:0.25 / mixed_ref=1 / me_range=16 / chroma_me=1 / trellis=1 / 8x8dct=1 / cqm=0 / deadzone=6,6 / fast_pskip=1 / chroma_qp_offset=-4 / threads=12 / lookahead_threads=3 / sliced_threads=0 / nr=0 / decimate=0 / interlaced=0 / bluray_compat=0 / constrained_intra=0 / bframes=3 / b_pyramid=2 / b_adapt=2 / b_bias=0 / direct=3 / weightb=1 / open_gop=0 / weightp=2 / keyint=600 / keyint_min=60 / scenecut=40 / intra_refresh=0 / rc_lookahead=50 / rc=2pass / mbtree=1 / bitrate=25000 / ratetol=1.0 / qcomp=0.80 / qpmin=0 / qpmax=69 / qpstep=4 / cplxblur=20.0 / qblur=0.5 / vbv_maxrate=50000 / vbv_bufsize=50000 / nal_hrd=none / filler=0 / ip_ratio=1.10 / aq=1:0.50
    Язык : English
    Default : Да
    Forced : Нет
    Аудио #1
    Идентификатор : 2
    Формат : AC-3
    Формат/Информация : Audio Coding 3
    Расширение режима : CM (complete main)
    Параметр Endianness формата : Big
    Режим смешивания : Header stripping
    Идентификатор кодека : A_AC3
    Продолжительность : 2 ч. 51 м.
    Вид битрейта : Постоянный
    Битрейт : 192 Кбит/сек
    Каналы : 2 канала
    Расположение каналов : Front: L R
    Частота : 48,0 КГц
    Частота кадров : 31,250 кадров/сек (1536 spf)
    Битовая глубина : 16 бит
    Метод сжатия : С потерями
    Размер потока : 236 Мбайт (1%)
    Язык : English
    Default : Да
    Forced : Нет
    Statistics Tags Issue : mkvmerge v7.3.0 ('Nouages') 64bit built on Oct 22 2014 18:53:34 2014-12-07 02:35:31 / mkvmerge v5.8.0 ('No Sleep / Pillow') built on Sep 2 2012 15:37:04 2021-07-13 19:14:56
    FromStats_BitRate : 192000
    FromStats_Duration : 02:51:33.152000000
    FromStats_FrameCount : 321661
    FromStats_StreamSize : 247035648
    Аудио #2
    Идентификатор : 3
    Формат : AC-3
    Формат/Информация : Audio Coding 3
    Расширение режима : CM (complete main)
    Параметр Endianness формата : Big
    Режим смешивания : Header stripping
    Идентификатор кодека : A_AC3
    Продолжительность : 2 ч. 51 м.
    Вид битрейта : Постоянный
    Битрейт : 448 Кбит/сек
    Каналы : 6 каналов
    Расположение каналов : Front: L C R, Side: L R, LFE
    Частота : 48,0 КГц
    Частота кадров : 31,250 кадров/сек (1536 spf)
    Битовая глубина : 16 бит
    Метод сжатия : С потерями
    Размер потока : 550 Мбайт (2%)
    Язык : English
    Default : Нет
    Forced : Нет
    Statistics Tags Issue : mkvmerge v7.3.0 ('Nouages') 64bit built on Oct 22 2014 18:53:34 2014-12-07 02:35:31 / mkvmerge v5.8.0 ('No Sleep / Pillow') built on Sep 2 2012 15:37:04 2021-07-13 19:14:56
    FromStats_BitRate : 448000
    FromStats_Duration : 02:51:33.152000000
    FromStats_FrameCount : 321661
    FromStats_StreamSize : 576416512
    Меню
    00:00:00.000 : en:Chapter 1
    00:05:44.319 : en:Chapter 2
    00:11:23.240 : en:Chapter 3
    00:16:34.720 : en:Chapter 4
    00:21:06.680 : en:Chapter 5
    00:25:02.839 : en:Chapter 6
    00:30:13.920 : en:Chapter 7
    00:34:44.719 : en:Chapter 8
    00:38:58.880 : en:Chapter 9
    00:41:00.480 : en:Chapter 10
    00:45:27.360 : en:Chapter 11
    00:49:35.599 : en:Chapter 12
    00:56:42.320 : en:Chapter 13
    01:01:01.639 : en:Chapter 14
    01:09:03.399 : en:Chapter 15
    01:14:47.680 : en:Chapter 16
    01:19:40.920 : en:Chapter 17
    01:30:11.136 : en:Chapter 18
    01:31:16.416 : en:Chapter 19
    01:36:31.895 : en:Chapter 20
    01:41:55.975 : en:Chapter 21
    01:46:16.136 : en:Chapter 22
    01:51:55.855 : en:Chapter 23
    01:56:54.136 : en:Chapter 24
    02:02:09.136 : en:Chapter 25
    02:07:01.576 : en:Chapter 26
    02:10:59.176 : en:Chapter 27
    02:15:24.496 : en:Chapter 28
    02:21:10.296 : en:Chapter 29
    02:27:18.174 : en:Chapter 30
    02:32:22.495 : en:Chapter 31
    02:37:40.855 : en:Chapter 32
    02:40:44.456 : en:Chapter 33
    02:44:16.615 : en:Chapter 34
    02:50:09.247 : en:Chapter 35

    Release was prepared by 60-fps.org



You cannot post new topics in this forum
You cannot reply to topics in this forum
You cannot edit your posts in this forum
You cannot delete your posts in this forum
You cannot vote in polls in this forum
You cannot attach files in this forum
You cannot download files in this forum