Earth timelapses BDRip 1080p | 60 fps Лунный свет 3: Дни вечности / Lichtmond 3: Days of Eternity (2014) BDRip 720p | 60fps Пейзажи времени / TimeScapes (2012) BDRip 1080p | 60 fps Погоня за ледниками / Chasing Ice (2012) BDRip 720p | 60fps Лунный свет 2: Вселенная света / Lichtmond 2: Universe of Light (2012) BDRip 720p | 60fps Лунный свет / Lichtmond (2010) BDRip 720p | 60fps Музыкальный камин / HDScape: Fireplace - Visions Of Tranquility (2008) BDRip 1080p | 60 fps Планета Земля 2 / Planet Earth II (2016) BDRip 1080p | 60 fps
  1. Longevity:
    4 years 3 months
    Posts:
    221
    Gender:
    Male
    Заказать фильмы, клипы или любое другое видео в качестве 60fps может каждый!!!
    Стоимость одного видео 50руб. !!!
    Пишите Талямба в личку, всё обсудите...
    Winter in the Carpathians (2017) BDRip 1080p | 60 fps Информация
    Название: Winter in the Carpathians
    Оригинальное название: Winter in the Carpathians
    Год выхода: 2017
    Жанр: Документальный
    Режиссер: Роман Хомляк
    Страна: США
    Продолжительность: 00:43:30
    -- Сюжет:
    Snow-capped mountains, snowy white veil that covers the ground and the roofs, amazing wildlife and relaxing music...everything is combined into a wonderful 4K nature relaxation video. The Carpathians are a mount range located in the Eastern and Central Europe, the second-longest mountain range in Europe. Forested hills and fast-flowing rivers… this is the land of freedom and endless beauty.
    The Carpathians with the forested hills and fast-flowing rivers, abundant wildlife provide endless possibilities for hiking, wildlife and bird watching, skiing and much more. This region has everything for a good vacation. Enjoy the pure winter and soothing music that will help to feel free from stress, anxiety, insomnia and more.
    Enjoy this pure winter and soothing music that will help to feel free from stress, anxiety, insomnia and more...
    Transform your lifeless TV into a white wonderland! Enjoy Ukrainian mountains and you are welcome to visit this friendly place!
    -- Файл
    Кодек: V_MPEG4/ISO/AVC
    Формат: MKV
    Качество: BDRip 1080p | 60 fps
    Видео: 1920 x 1080 (16:9) | 60,000 fps | 21.2 Мбит/сек
    Аудио 1: AC3, 2 ch, 640 Кбит/с | Musical Score + Natural Sound |

    MedifInfo

    Общее
    Уникальный идентификатор : 229525694989352414851308659662359104446 (0xACAD0A78551FECE88F72196C7B940BBE)
    Полное имя : D:\Demo\Winter in the Carpathians (2017).1080p.60fps.mkv
    Формат : Matroska
    Версия формата : Version 2
    Размер файла : 6,62 Гбайт
    Продолжительность : 43 м. 30 с.
    Общий поток : 21,8 Мбит/сек
    Дата кодирования : UTC 2021-04-15 19:15:41
    Программа кодирования : mkvmerge v5.8.0 ('No Sleep / Pillow') built on Sep 2 2012 15:37:04
    Библиотека кодирования : libebml v1.2.3 + libmatroska v1.3.0
    Attachments : Poster
    Видео
    Идентификатор : 1
    Формат : AVC
    Формат/Информация : Advanced Video Codec
    Профиль формата : [email protected]
    Параметр CABAC формата : Да
    Параметр ReFrames формата : 4 кадра
    Режим смешивания : Header stripping
    Идентификатор кодека : V_MPEG4/ISO/AVC
    Продолжительность : 43 м. 30 с.
    Битрейт : 21,2 Мбит/сек
    Ширина : 1920 пикселей
    Высота : 1080 пикселей
    Соотношение сторон : 16:9
    Режим частоты кадров : Постоянный
    Частота кадров : 60,000 кадров/сек
    Цветовое пространство : YUV
    Субдискретизация насыщенности : 4:2:0
    Битовая глубина : 8 бит
    Тип развёртки : Прогрессивная
    Бит/(Пиксели*Кадры) : 0.170
    Размер потока : 6,30 Гбайт (95%)
    Библиотека кодирования : x264 core 146 r2538 121396c
    Настройки программы : cabac=1 / ref=4 / deblock=1:0:0 / analyse=0x3:0x113 / me=umh / subme=8 / psy=1 / psy_rd=1.00:0.25 / mixed_ref=1 / me_range=16 / chroma_me=1 / trellis=1 / 8x8dct=1 / cqm=0 / deadzone=6,6 / fast_pskip=1 / chroma_qp_offset=-4 / threads=12 / lookahead_threads=3 / sliced_threads=0 / nr=0 / decimate=0 / interlaced=0 / bluray_compat=0 / constrained_intra=0 / bframes=3 / b_pyramid=2 / b_adapt=2 / b_bias=0 / direct=3 / weightb=1 / open_gop=0 / weightp=2 / keyint=600 / keyint_min=60 / scenecut=40 / intra_refresh=0 / rc_lookahead=50 / rc=2pass / mbtree=1 / bitrate=21200 / ratetol=1.0 / qcomp=0.80 / qpmin=0 / qpmax=69 / qpstep=4 / cplxblur=20.0 / qblur=0.5 / vbv_maxrate=50000 / vbv_bufsize=50000 / nal_hrd=none / filler=0 / ip_ratio=1.10 / aq=1:0.50
    Язык : English
    Default : Да
    Forced : Нет
    Аудио
    Идентификатор : 2
    Формат : AC-3
    Формат/Информация : Audio Coding 3
    Расширение режима : CM (complete main)
    Параметр Endianness формата : Big
    Режим смешивания : Header stripping
    Идентификатор кодека : A_AC3
    Продолжительность : 43 м. 30 с.
    Вид битрейта : Постоянный
    Битрейт : 640 Кбит/сек
    Каналы : 2 канала
    Расположение каналов : Front: L R
    Частота : 44,1 КГц
    Частота кадров : 28,711 кадров/сек (1536 spf)
    Битовая глубина : 16 бит
    Метод сжатия : С потерями
    Размер потока : 199 Мбайт (3%)
    Default : Да
    Forced : Нет

    Release was prepared by 60-fps.org



You cannot post new topics in this forum
You cannot reply to topics in this forum
You cannot edit your posts in this forum
You cannot delete your posts in this forum
You cannot vote in polls in this forum
You cannot attach files in this forum
You cannot download files in this forum