Топ Топиков за 24 часа
 
Джон Уик 2 / John Wick: Chapter Two (2017) BDRip 720p | 60 fps Форсаж 8 / The Fate of the Furious (2017) BDRip 1080p | 60 fps Стражи Галактики. Часть 2 / Guardians of the Galaxy Vol. 2 (2017) BDRip 1080p | 60 fps Призрак в доспехах / Ghost in the Shell (2017) BDRip 1080p | 60 fps Великая стена / The Great Wall (2016) BDRip 1080p | 60 fps Форсаж 8 / The Fate of the Furious (2017) BDRip 720p | 60 fps Варкрафт / Warcraft (2016) BDRip 1080p | 60 fps Конг: Остров черепа / Kong: Skull Island (2017) BDRip 1080p | 60 fps Доктор Стрэндж / Doctor Strange (2016) BDRip 1080p | 60 fps Чужой: Завет / Alien: Covenant (2016) BDRip 720p | 60 fps Пираты Карибского моря: Мертвецы не рассказывают сказки / Pirates of the Caribbean: Dead Men Tell No Tales (2017) BDRip 1080p | 60 fps Меч короля Артура / King Arthur: Legend of the Sword (2017) BDRip 1080p | 60 fps
  1. Стаж:
    3 года 2 месяца
    Сообщений:
    2116
    Пол:
    Мужской
     
    Взрывная блондинка / Atomic Blonde (2017) BDRip 1080p | 60 fps Информация
    Название: Взрывная блондинка
    Оригинальное название: Atomic Blonde
    Год выхода: 2017
    Жанр: Боевик, триллер, детектив
    Режиссер: Дэвид Литч
    Сценарий: Курт Джонстад, Энтони Джонстон, Сэм Харт
    Продюсер: А.Дж. Дикс, Эрик Гиттер, Дэвид Гуиллод
    В ролях: Шарлиз Терон, Джеймс МакЭвой, Эдди Марсан, Джон Гудмен, Тоби Джонс, Джеймс Фолкнер, Роланд Мёллер, София Бутелла, Билл Скарсгард, Сэм Харгрейв

    Сюжет:
    1989 год. Берлин перед падением тяжкого наследия советского режима. Лоррейн Бротон - суперагент британской разведки, спортсменка, умница и - просто красавица, по заданию партии и правительства ищет некую микропленку со списком всех тайных агентов Запада. В своих поисках она вынуждена объединиться с главой берлинской резидентуры Дэвидом Персивалем, который только с виду интеллигентный молодой человек, аккуратный, вежливый и предупредительный. Вместе они противостоят идейным агентам КГБ и прочим суккубам, мечтающим заполучить вожделенный список и повернуть ход сражения в Холодной войне в свою пользу.

    Страна: Германия, Швеция, США
    Продолжительность: 01:54:44

    Файл
    Кодек: MPEG4|ISO|AVC|H.264|
    Формат: MKV
    Качество: BDRip 720p | 60 fps
    Видео: 1280 x 536 (2.388) | 59.940 fps | 10.0 Мбит/сек
    Аудио 01: AC3 | 5.1 | 48 kHz | 384 kbps | 16 bit | Дубляж - iTunes |
    Аудио 02: AC3 | 5.1 | 48 kHz | 448 kbps | 16 bit | English |
    Субтитры: Русские (full), английские

    MedifInfo

    Видео
    Идентификатор : 1
    Формат : AVC
    Формат/Информация : Advanced Video Codec
    Профиль формата : High@L4.1
    Параметр CABAC формата : Да
    Параметр ReFrames формата : 3 кадра
    Идентификатор кодека : V_MPEG4/ISO/AVC
    Продолжительность : 1 ч. 54 м.
    Вид битрейта : Переменный
    Битрейт : 9532 Кбит/сек
    Максимальный битрейт : 10000 Кбит/сек
    Ширина : 1280 пикселей
    Высота : 536 пикселей
    Соотношение сторон : 2,40:1
    Режим частоты кадров : Постоянный
    Частота кадров : 59,880 кадров/сек
    Частота кадров в оригинале : 59,940 кадров/сек
    Стандарт вещания : PAL
    Цветовое пространство : YUV
    Субдискретизация насыщенности : 4:2:0
    Битовая глубина : 8 бит
    Тип развёртки : Прогрессивная
    Бит/(Пиксели*Кадры) : 0.232
    Размер потока : 7,64 Гбайт (90%)
    Заголовок : www.60-fps.org
    Язык : English
    Default : Да
    Forced : Нет
    Основные цвета : BT.601 NTSC
    Характеристики трансфера : BT.601
    Коэффициенты матрицы : BT.601
    colour_range : Limited
    Аудио #1
    Идентификатор : 2
    Формат : AC-3
    Формат/Информация : Audio Coding 3
    Расширение режима : CM (complete main)
    Параметр Endianness формата : Big
    Идентификатор кодека : A_AC3
    Продолжительность : 1 ч. 54 м.
    Вид битрейта : Постоянный
    Битрейт : 384 Кбит/сек
    Каналы : 6 каналов
    Расположение каналов : Front: L C R, Side: L R, LFE
    Частота : 48,0 КГц
    Битовая глубина : 16 бит
    Метод сжатия : С потерями
    Размер потока : 315 Мбайт (4%)
    Заголовок : Дубляж - iTunes
    Язык : Russian
    Default : Да
    Forced : Нет
    Аудио #2
    Идентификатор : 3
    Формат : AC-3
    Формат/Информация : Audio Coding 3
    Расширение режима : CM (complete main)
    Параметр Endianness формата : Big
    Идентификатор кодека : A_AC3
    Продолжительность : 1 ч. 54 м.
    Вид битрейта : Постоянный
    Битрейт : 448 Кбит/сек
    Каналы : 6 каналов
    Расположение каналов : Front: L C R, Side: L R, LFE
    Частота : 48,0 КГц
    Битовая глубина : 16 бит
    Метод сжатия : С потерями
    Размер потока : 368 Мбайт (4%)
    Заголовок : english
    Язык : English
    Default : Нет
    Forced : Нет
    Текст #1
    Идентификатор : 4
    Формат : UTF-8
    Идентификатор кодека : S_TEXT/UTF8
    Идентификатор кодека/Информация : UTF-8 Plain Text
    Заголовок : Forced
    Язык : Russian
    Default : Да
    Forced : Нет
    Текст #2
    Идентификатор : 5
    Формат : UTF-8
    Идентификатор кодека : S_TEXT/UTF8
    Идентификатор кодека/Информация : UTF-8 Plain Text
    Заголовок : Full
    Язык : English
    Default : Нет
    Forced : Нет
    Меню
    00:00:00.000 : en:Chapter 1
    00:06:47.990 : en:Chapter 2
    00:11:03.162 : en:Chapter 3
    00:18:17.221 : en:Chapter 4
    00:24:15.579 : en:Chapter 5
    00:27:47.165 : en:Chapter 6
    00:32:50.009 : en:Chapter 7
    00:36:20.094 : en:Chapter 8
    00:40:46.152 : en:Chapter 9
    00:47:55.664 : en:Chapter 10
    00:53:13.481 : en:Chapter 11
    00:59:54.090 : en:Chapter 12
    01:03:32.767 : en:Chapter 13
    01:08:03.788 : en:Chapter 14
    01:10:52.414 : en:Chapter 15
    01:18:27.452 : en:Chapter 16
    01:24:28.271 : en:Chapter 17
    01:32:44.267 : en:Chapter 18
    01:42:06.245 : en:Chapter 19
    01:48:21.077 : en:Chapter 20

    Релиз подготовлен 60 - fps



Вы не можете начинать темы
Вы не можете отвечать на сообщения
Вы не можете редактировать свои сообщения
Вы не можете удалять свои сообщения
Вы не можете голосовать в опросах
Вы не можете прикреплять файлы к сообщениям
Вы не можете скачивать файлы