Богемская рапсодия /Bohemian Rhapsody (2018) BDRip 1080p | 60 fps Властелин колец: Трилогия / The Lord of the Rings: Trilogy (2001-2003) BDRip-AVC | Extended Cut | 60 fps Апгрейд / Upgrade (2018) BDRip 1080p | 60 fps Проклятие монахини / The Nun (2018) BDRip 720p | 60 fps 22 мили / Mile 22 (2018) BDRip 720p | 60 fps Щелкунчик и четыре королевства / The Nutcracker and the Four Realms (2018) BDRip 1080p | 60 fps Маугли / Mowgli (2018) BDRip 720p | 60 fps Джон Уик / John Wick (2014) BDRip 720p | 60 fps
  1. Longevity:
    4 years 8 months
    Posts:
    2411
    Gender:
    Male
    Взрывная блондинка / Atomic Blonde (2017) BDRip 1080p | 60 fps Информация
    Название: Взрывная блондинка
    Оригинальное название: Atomic Blonde
    Год выхода: 2017
    Жанр: Боевик, триллер, детектив
    Режиссер: Дэвид Литч
    Сценарий: Курт Джонстад, Энтони Джонстон, Сэм Харт
    Продюсер: А.Дж. Дикс, Эрик Гиттер, Дэвид Гуиллод
    В ролях: Шарлиз Терон, Джеймс МакЭвой, Эдди Марсан, Джон Гудмен, Тоби Джонс, Джеймс Фолкнер, Роланд Мёллер, София Бутелла, Билл Скарсгард, Сэм Харгрейв

    Сюжет:
    1989 год. Берлин перед падением тяжкого наследия советского режима. Лоррейн Бротон - суперагент британской разведки, спортсменка, умница и - просто красавица, по заданию партии и правительства ищет некую микропленку со списком всех тайных агентов Запада. В своих поисках она вынуждена объединиться с главой берлинской резидентуры Дэвидом Персивалем, который только с виду интеллигентный молодой человек, аккуратный, вежливый и предупредительный. Вместе они противостоят идейным агентам КГБ и прочим суккубам, мечтающим заполучить вожделенный список и повернуть ход сражения в Холодной войне в свою пользу.

    Страна: Германия, Швеция, США
    Продолжительность: 01:54:44

    Файл
    Кодек: MPEG4|ISO|AVC|H.264|
    Формат: MKV
    Качество: BDRip 1080p | 60 fps
    Видео: 1920 x 804 (2.388) | 59.940 fps | 23.0 Мбит/сек
    Аудио 01: AC3 | 5.1 | 48 kHz | 384 kbps | 16 bit | Дубляж - iTunes |
    Аудио 02: AC3 | 5.1 | 48 kHz | 448 kbps | 16 bit | English |
    Субтитры: Русские (full), английские

    MedifInfo

    Видео
    Идентификатор : 1
    Формат : AVC
    Формат/Информация : Advanced Video Codec
    Профиль формата : High@L4.1
    Параметр CABAC формата : Да
    Параметр ReFrames формата : 5 кадров
    Идентификатор кодека : V_MPEG4/ISO/AVC
    Продолжительность : 1 ч. 54 м.
    Битрейт : 23,0 Мбит/сек
    Ширина : 1920 пикселей
    Высота : 804 пикселя
    Соотношение сторон : 2,40:1
    Режим частоты кадров : Постоянный
    Частота кадров : 59,880 кадров/сек
    Частота кадров в оригинале : 59,940 кадров/сек
    Цветовое пространство : YUV
    Субдискретизация насыщенности : 4:2:0
    Битовая глубина : 8 бит
    Тип развёртки : Прогрессивная
    Бит/(Пиксели*Кадры) : 0.249
    Размер потока : 18,1 Гбайт (95%)
    Заголовок : www.60-fps.org
    Библиотека кодирования : x264 core 148 r2744 b97ae06
    Настройки программы : cabac=1 / ref=5 / deblock=1:-3:-3 / analyse=0x3:0x113 / me=umh / subme=8 / psy=1 / psy_rd=1.00:0.25 / mixed_ref=1 / me_range=32 / chroma_me=1 / trellis=1 / 8x8dct=1 / cqm=0 / deadzone=6,6 / fast_pskip=1 / chroma_qp_offset=-4 / threads=12 / lookahead_threads=2 / sliced_threads=0 / nr=0 / decimate=0 / interlaced=0 / bluray_compat=0 / constrained_intra=0 / bframes=3 / b_pyramid=2 / b_adapt=1 / b_bias=0 / direct=3 / weightb=1 / open_gop=0 / weightp=2 / keyint=599 / keyint_min=59 / scenecut=40 / intra_refresh=0 / rc_lookahead=50 / rc=2pass / mbtree=1 / bitrate=22999 / ratetol=1.0 / qcomp=0.80 / qpmin=0 / qpmax=69 / qpstep=4 / cplxblur=20.0 / qblur=0.5 / vbv_maxrate=62500 / vbv_bufsize=78125 / nal_hrd=none / filler=0 / ip_ratio=1.10 / aq=1:0.50
    Default : Да
    Forced : Нет
    Аудио #1
    Идентификатор : 2
    Формат : AC-3
    Формат/Информация : Audio Coding 3
    Расширение режима : CM (complete main)
    Параметр Endianness формата : Big
    Идентификатор кодека : A_AC3
    Продолжительность : 1 ч. 54 м.
    Вид битрейта : Постоянный
    Битрейт : 384 Кбит/сек
    Каналы : 6 каналов
    Расположение каналов : Front: L C R, Side: L R, LFE
    Частота : 48,0 КГц
    Битовая глубина : 16 бит
    Метод сжатия : С потерями
    Размер потока : 315 Мбайт (2%)
    Заголовок : Дубляж - iTunes
    Язык : Russian
    Default : Да
    Forced : Нет
    Аудио #2
    Идентификатор : 3
    Формат : AC-3
    Формат/Информация : Audio Coding 3
    Расширение режима : CM (complete main)
    Параметр Endianness формата : Big
    Идентификатор кодека : A_AC3
    Продолжительность : 1 ч. 54 м.
    Вид битрейта : Постоянный
    Битрейт : 448 Кбит/сек
    Каналы : 6 каналов
    Расположение каналов : Front: L C R, Side: L R, LFE
    Частота : 48,0 КГц
    Битовая глубина : 16 бит
    Метод сжатия : С потерями
    Размер потока : 368 Мбайт (2%)
    Заголовок : english
    Язык : English
    Default : Нет
    Forced : Нет
    Текст #1
    Идентификатор : 4
    Формат : UTF-8
    Идентификатор кодека : S_TEXT/UTF8
    Идентификатор кодека/Информация : UTF-8 Plain Text
    Заголовок : Forced
    Язык : Russian
    Default : Да
    Forced : Нет
    Текст #2
    Идентификатор : 5
    Формат : UTF-8
    Идентификатор кодека : S_TEXT/UTF8
    Идентификатор кодека/Информация : UTF-8 Plain Text
    Заголовок : Full
    Язык : English
    Default : Нет
    Forced : Нет
    Меню
    00:00:00.000 : en:Chapter 1
    00:06:47.990 : en:Chapter 2
    00:11:03.162 : en:Chapter 3
    00:18:17.221 : en:Chapter 4
    00:24:15.579 : en:Chapter 5
    00:27:47.165 : en:Chapter 6
    00:32:50.009 : en:Chapter 7
    00:36:20.094 : en:Chapter 8
    00:40:46.152 : en:Chapter 9
    00:47:55.664 : en:Chapter 10
    00:53:13.481 : en:Chapter 11
    00:59:54.090 : en:Chapter 12
    01:03:32.767 : en:Chapter 13
    01:08:03.788 : en:Chapter 14
    01:10:52.414 : en:Chapter 15
    01:18:27.452 : en:Chapter 16
    01:24:28.271 : en:Chapter 17
    01:32:44.267 : en:Chapter 18
    01:42:06.245 : en:Chapter 19
    01:48:21.077 : en:Chapter 20

    Release was prepared by 60 - fps

  2. Longevity:
    1 year 11 months
    Posts:
    5
    Gender:
    Male
    встантес в раздачу пж
    05-Jun-2018 10:57 (after 6 months 27 days)
  3. Longevity:
    2 years 6 months
    Posts:
    1
    Gender:
    Unknown
    не скачивается...
    14-Apr-2019 16:11 (after 10 months 9 days)


You cannot post new topics in this forum
You cannot reply to topics in this forum
You cannot edit your posts in this forum
You cannot delete your posts in this forum
You cannot vote in polls in this forum
You cannot attach files in this forum
You cannot download files in this forum