Планета Земля 2 / Planet Earth II (2016) BDRip 1080p | 60 fps Голубая бездна (Глубина) / Deep Blue (2003) BDRip 1080p | 60 fps Заколдованное королевство / Enchanted Kingdom (2013) BDRip 720p | 60fps Музыкальный камин / HDScape: Fireplace - Visions Of Tranquility (2008) BDRip 1080p | 60 fps Пейзажи времени / TimeScapes (2012) BDRip 1080p | 60 fps Жизненные циклы / Life Cycles (2010) BDRip 720p | 60 fps Вызов бездне 3D / Deepsea Challenge 3D (2014) Full HD 1080p | 3D-Video | HSBS | 60 fps В краю муссонов / Wonders of the Monsoon (2014) BDRip 1080p | 60 fps
  1. Стаж:
    2 года 1 месяц
    Сообщений:
    588
    Пол:
    Мужской
    «Путешествие на дно Марианской впадины»- Информация
    Название: Вызов бездне 3D
    Оригинальное название: Deepsea Challenge 3D
    Год выхода: 2014
    Жанр: документальный
    Режиссер: Джон Бруно, Рэй Кен, Эндрю Уайт
    Сценарий: Эндрю Уайт, Джон Гарвин
    Продюсер: Джеймс Кэмерон, Бретт Попплуэлл
    В ролях: Джеймс Кэмерон,Сьюзи Эймис,Пол Генри,Френк Лотито,Лачлан Вудс
    --Сюжет:
    На Земле есть несколько мест, которых не коснулась история развития человечества. В полной темноте и безмолвии они хранят величайшие тайны Земли. Недоступные, как далекие планеты, они полны научных открытий. Одно из таких мест — Марианская впадина.
    Джеймс Кэмерон — самый известный и успешный режиссер в мире, еще и страстный исследователь океанов, ведомый мечтой всей его жизни, быть первым человеком, ныряющим в одиночку на дно неприступной и самой глубокой из всех известных на Земле Марианской впадины.
    Вызов бездне — захватывающая история, разворачивающаяся перед нами в 3D, об экспедиции исторического масштаба, которую можно сравнить разве что с первыми человеческими шагами по луне. Вызов бездне загипнотизирует зрителя любого возраста красотой новых форм жизни, трепетом от настоящих открытий. А самое главное, что все это здесь, на их родной планете.
    - Страна: США
    Продолжительность: 01:31:04

    Файл
    Кодек: MPEG4/ISO/AVC/High@L4.2/H.264
    Формат: MKV
    Качество: BDRip 1080p | 60 fps
    Видео: 1920 x 1080 (1.778) | 59.940 fps | 20.0 Мбит/сек
    Аудио 1: AC-3| 2.0 | 48 kHz | 192 Кбит/сек | 16 bit | Многоголосный (Закадровый) |
    Субтитры: НЕТ

    MedifInfo

    Видео
    Идентификатор : 1
    Формат : AVC
    Формат/Информация : Advanced Video Codec
    Профиль формата : High@L4.2
    Параметр CABAC формата : Да
    Параметр ReFrames формата : 4 кадра
    Идентификатор кодека : V_MPEG4/ISO/AVC
    Продолжительность : 1 ч. 31 м.
    Битрейт : 20,0 Мбит/сек
    Ширина : 1920 пикселей
    Высота : 1080 пикселей
    Соотношение сторон : 16:9
    Режим частоты кадров : Постоянный
    Частота кадров : 59,940 (59940/1000) кадров/сек
    Цветовое пространство : YUV
    Субдискретизация насыщенности : 4:2:0
    Битовая глубина : 8 бит
    Тип развёртки : Прогрессивная
    Бит/(Пиксели*Кадры) : 0.161
    Размер потока : 12,7 Гбайт (99%)
    Заголовок : Талямба: 60-fps.org
    Библиотека кодирования : x264 core 130 r2273 b3065e6
    Настройки программы : cabac=1 / ref=3 / deblock=1:0:0 / analyse=0x3:0x113 / me=hex / subme=7 / psy=1 / psy_rd=1.00:0.00 / mixed_ref=1 / me_range=16 / chroma_me=1 / trellis=1 / 8x8dct=1 / cqm=0 / deadzone=21,11 / fast_pskip=1 / chroma_qp_offset=-2 / threads=12 / lookahead_threads=2 / sliced_threads=0 / nr=0 / decimate=1 / interlaced=0 / bluray_compat=0 / constrained_intra=0 / bframes=3 / b_pyramid=2 / b_adapt=1 / b_bias=0 / direct=1 / weightb=1 / open_gop=0 / weightp=2 / keyint=250 / keyint_min=25 / scenecut=40 / intra_refresh=0 / rc_lookahead=40 / rc=abr / mbtree=1 / bitrate=20000 / ratetol=1.0 / qcomp=0.60 / qpmin=0 / qpmax=69 / qpstep=4 / ip_ratio=1.40 / aq=1:1.00
    Язык : English
    Default : Да
    Forced : Нет
    Аудио
    Идентификатор : 2
    Формат : AC-3
    Формат/Информация : Audio Coding 3
    Расширение режима : CM (complete main)
    Параметр Endianness формата : Big
    Идентификатор кодека : A_AC3
    Продолжительность : 1 ч. 31 м.
    Вид битрейта : Постоянный
    Битрейт : 192 Кбит/сек
    Каналы : 2 канала
    Расположение каналов : Front: L R
    Частота : 48,0 КГц
    Частота кадров : 31,250 кадров/сек (1536 spf)
    Битовая глубина : 16 бит
    Метод сжатия : С потерями
    Размер потока : 125 Мбайт (1%)
    Заголовок : Многоголосный (Закадровый)
    Язык : Russian
    Default : Да
    Forced : Нет


Вы не можете начинать темы
Вы не можете отвечать на сообщения
Вы не можете редактировать свои сообщения
Вы не можете удалять свои сообщения
Вы не можете голосовать в опросах
Вы не можете прикреплять файлы к сообщениям
Вы не можете скачивать файлы