«Their deadly mission: to crack the forbidden island of Han!»- Информация
Название: Выход Дракона
Оригинальное название: Enter the Dragon
Год выхода: 1973
Жанр: Боевик, триллер, драма, криминал
Режиссер: Роберт Клауз
Сценарий: Майкл Аллин
Продюсер: Фред Вентрауб, Рэймонд Чоу, Пол М. Хеллер
В ролях: Брюс Ли, Джон Сэксон, Кьень Ши, Ана Капри, Анджела Мао, Джим Келли, Роберт Уолл, Боло Йенг, Бетти Чюн, Джефри Уикс
--Сюжет:
События переносят нас на остров, превращенный в крепость главарем боевиков, открывшим там школу боевых искусств, которая является лишь ширмой, маскирующей контрабандный бизнес. В эту цитадель проникает герой Брюса Ли и становится участником жестокого турнира…- - Страна: Гонконг, США
Продолжительность: 01:42:33

Файл
Кодек: MPEG4/ISO/AVC H.264
Формат: MKV
Качество: BDRip-AVC | 60 fps
Видео: 1024x432 (2.35:1) | 59.940 fps | 3.0 Мбит/сек
Аудио: AC3 | 5.1 | 48 kHz | 384 kbps | 16 bit | Дублированный |
Субтитры: Русские (Полные), английские (Полные)

MedifInfo

Video
ID : 1
Format : AVC
Format/Info : Advanced Video Codec
Format profile : High@L4.1
Format settings, CABAC : Yes
Format settings, ReFrames : 9 frames
Codec ID : V_MPEG4/ISO/AVC
Duration : 1h 42mn
Bit rate : 3 078 Kbps
Width : 1 024 pixels
Height : 432 pixels
Display aspect ratio : 2.35:1
Frame rate : 59.940 fps
Color space : YUV
Chroma subsampling : 4:2:0
Bit depth : 8 bits
Scan type : Progressive
Bits/(Pixel*Frame) : 0.116
Stream size : 2.21 GiB (87%)
Writing library : x264 core 146 r2538 121396c
Encoding settings : cabac=1 / ref=9 / deblock=1:0:0 / analyse=0x3:0x111 / me=umh / subme=10 / psy=1 / psy_rd=1.00:0.00 / mixed_ref=1 / me_range=32 / chroma_me=0 / trellis=2 / 8x8dct=1 / cqm=0 / deadzone=21,11 / fast_pskip=1 / chroma_qp_offset=-2 / threads=12 / lookahead_threads=1 / sliced_threads=0 / nr=0 / decimate=0 / interlaced=0 / bluray_compat=0 / constrained_intra=0 / bframes=5 / b_pyramid=2 / b_adapt=2 / b_bias=0 / direct=3 / weightb=1 / open_gop=0 / weightp=2 / keyint=250 / keyint_min=25 / scenecut=40 / intra_refresh=0 / rc=crf / mbtree=0 / crf=18.5 / qcomp=0.60 / qpmin=0 / qpmax=69 / qpstep=4 / ip_ratio=1.40 / pb_ratio=1.30 / aq=1:1.00
Language : English
Default : Yes
Forced : No
Audio
ID : 2
Format : AC-3
Format/Info : Audio Coding 3
Mode extension : CM (complete main)
Codec ID : A_AC3
Duration : 1h 42mn
Bit rate mode : Constant
Bit rate : 384 Kbps
Channel(s) : 6 channels
Channel positions : Front: L C R, Side: L R, LFE
Sampling rate : 48.0 KHz
Bit depth : 16 bits
Compression mode : Lossy
Stream size : 282 MiB (11%)
Title : Дубляж
Language : Russian
Default : Yes
Forced : No
Text #1
ID : 3
Format : UTF-8
Codec ID : S_TEXT/UTF8
Codec ID/Info : UTF-8 Plain Text
Title : Полные
Language : Russian
Default : Yes
Forced : No
Text #2
ID : 4
Format : UTF-8
Codec ID : S_TEXT/UTF8
Codec ID/Info : UTF-8 Plain Text
Title : Полные
Language : English
Default : No
Forced : No

[Цитировать]
DIMMM52

в видеосалонах этот фильм был под названием «остров дракона», пасиб.
 
Показать сообщения:    

Текущее время: 05-Дек 01:22

Часовой пояс: UTC + 3


Вы не можете начинать темы
Вы не можете отвечать на сообщения
Вы не можете редактировать свои сообщения
Вы не можете удалять свои сообщения
Вы не можете голосовать в опросах
Вы не можете прикреплять файлы к сообщениям
Вы не можете скачивать файлы