[Цитировать]
Kryl

--Вверх / Up (2009) BDRip 720p от NNNB | 60 fps --Информация о фильме
Название: Вверх
Оригинальное название: Up
Год выхода: 2009
Жанр: мультфильм, драма, комедия, приключения, семейный
Режиссер: Пит Доктер, Боб Питерсон
Страна: США
Продолжительность: 01:36:44
Перевод: Дублированный
Роли озвучивали: Эдвард Эснер, Кристофер Пламмер, Джордан Нагаи, Боб Питерсон, Делрой Линдо, Джером Рэнфт, Джон Ратценбергер, Дэвид Кэй, Эли Доктер, Джереми Лири
--О фильме:
78-летний ворчун Карл Фредриксен считает, что жизнь обходит его стороной. Чтобы сдержать обещание, данное своей почившей жене, он решает осуществить свою мечту о великом приключении, привязав тысячи воздушных шариков к своему дому и улетев в дебри Южной Америки. Не пролетев и полмили, путешественник обнаруживает, что он ненароком прихватил с собой крайне разговорчивого и неисправимо жизнерадостного 8-летнего мальчика по имени Рассел…
--Файл
Кодек: MPEG4/ISO/AVCH.264
Формат: MKV
Качество: BDRip 720p (исходник Blu-ray Disc)
Видео: 1280x720, 5500 Кбит/сек, 59.940 кадр/сек, AVC, x264, High@L4.1, 16:9, 0.100 Бит/[Пиксели*Кадры]
Аудио 1: AC-3, 640 Кбит/сек, 6 канала(ов), 48,0 КГц - Дублированный / Русский
Аудио 2: AC-3, 640 Кбит/сек, 6 канала(ов), 48,0 КГц - Оригинал / Английский
Субтитры: Русские | Полные, Английские | Полные
-

MI

Format : Matroska
Format version : Version 2
File size : 4.58 GiB
Duration : 1h 36mn
Overall bit rate : 6 784 Kbps
Movie name : Вверх.(2009).BDRip.720p.[envy].[60fps]
Encoded date : UTC 2014-11-01 06:24:21
Writing application : mkvmerge v5.8.0 ('No Sleep / Pillow') built on Sep 2 2012 15:37:04
Writing library : libebml v1.2.3 + libmatroska v1.3.0
Video
ID : 1
Format : AVC
Format/Info : Advanced Video Codec
Format profile : High@L4.1
Format settings, CABAC : Yes
Format settings, ReFrames : 9 frames
Codec ID : V_MPEG4/ISO/AVC
Duration : 1h 36mn
Bit rate : 5 500 Kbps
Width : 1 280 pixels
Height : 720 pixels
Display aspect ratio : 16:9
Frame rate mode : Constant
Frame rate : 59.880 fps
Original frame rate : 59.940 fps
Color space : YUV
Chroma subsampling : 4:2:0
Bit depth : 8 bits
Scan type : Progressive
Bits/(Pixel*Frame) : 0.100
Stream size : 3.63 GiB (79%)
Title : Вверх.(2009).BDRip.720p.[envy].[60fps]
Writing library : x264 core 130 r2273 b3065e6
Encoding settings : cabac=1 / ref=9 / deblock=1:0:0 / analyse=0x3:0x133 / me=umh / subme=11 / psy=1 / psy_rd=1.00:0.00 / mixed_ref=1 / me_range=32 / chroma_me=1 / trellis=2 / 8x8dct=1 / cqm=0 / deadzone=21,11 / fast_pskip=0 / chroma_qp_offset=-2 / threads=12 / lookahead_threads=2 / sliced_threads=0 / nr=0 / decimate=1 / interlaced=0 / bluray_compat=0 / constrained_intra=0 / bframes=7 / b_pyramid=2 / b_adapt=2 / b_bias=0 / direct=3 / weightb=1 / open_gop=0 / weightp=2 / keyint=250 / keyint_min=25 / scenecut=40 / intra_refresh=0 / rc=2pass / mbtree=0 / bitrate=5500 / ratetol=1.0 / qcomp=0.60 / qpmin=0 / qpmax=69 / qpstep=4 / cplxblur=20.0 / qblur=0.5 / ip_ratio=1.40 / pb_ratio=1.30 / aq=2:1.00
Language : English
Default : Yes
Forced : No
Audio #1
ID : 2
Format : AC-3
Format/Info : Audio Coding 3
Mode extension : CM (complete main)
Format settings, Endianness : Big
Codec ID : A_AC3
Duration : 1h 36mn
Bit rate mode : Constant
Bit rate : 640 Kbps
Channel(s) : 6 channels
Channel positions : Front: L C R, Side: L R, LFE
Sampling rate : 48.0 KHz
Bit depth : 16 bits
Compression mode : Lossy
Stream size : 443 MiB (9%)
Title : Dub
Language : Russian
Default : Yes
Forced : No
Audio #2
ID : 3
Format : AC-3
Format/Info : Audio Coding 3
Mode extension : CM (complete main)
Format settings, Endianness : Big
Codec ID : A_AC3
Duration : 1h 36mn
Bit rate mode : Constant
Bit rate : 640 Kbps
Channel(s) : 6 channels
Channel positions : Front: L C R, Side: L R, LFE
Sampling rate : 48.0 KHz
Bit depth : 16 bits
Compression mode : Lossy
Stream size : 443 MiB (9%)
Title : Eng
Language : English
Default : No
Forced : No
Text #1
ID : 4
Format : UTF-8
Codec ID : S_TEXT/UTF8
Codec ID/Info : UTF-8 Plain Text
Title : full
Language : Russian
Default : No
Forced : No
Text #2
ID : 5
Format : UTF-8
Codec ID : S_TEXT/UTF8
Codec ID/Info : UTF-8 Plain Text
Title : full
Language : English
Default : No
Forced : No
Menu
00:00:00.000 : en:00:00:00.000
00:02:39.409 : en:00:02:39.409
00:07:14.184 : en:00:07:14.184
00:11:37.488 : en:00:11:37.488
00:13:33.479 : en:00:13:33.479
00:15:22.088 : en:00:15:22.088
00:17:35.888 : en:00:17:35.888
00:20:25.140 : en:00:20:25.140
00:24:31.303 : en:00:24:31.303
00:26:23.790 : en:00:26:23.790
00:28:02.556 : en:00:28:02.556
00:29:40.237 : en:00:29:40.237
00:33:20.165 : en:00:33:20.165
00:34:20.391 : en:00:34:20.391
00:35:14.487 : en:00:35:14.487
00:39:49.512 : en:00:39:49.512
00:42:34.844 : en:00:42:34.844
00:44:41.178 : en:00:44:41.178
00:46:17.233 : en:00:46:17.233
00:49:19.123 : en:00:49:19.123
00:52:20.929 : en:00:52:20.929
00:55:23.987 : en:00:55:23.987
01:00:33.546 : en:01:00:33.546
01:04:19.188 : en:01:04:19.188
01:06:14.303 : en:01:06:14.303
01:08:58.009 : en:01:08:58.009
01:10:20.716 : en:01:10:20.716
01:13:35.327 : en:01:13:35.327
01:15:24.353 : en:01:15:24.353
01:17:52.751 : en:01:17:52.751
01:19:45.864 : en:01:19:45.864
01:21:53.867 : en:01:21:53.867
01:23:23.290 : en:01:23:23.290
01:26:02.657 : en:01:26:02.657
01:29:02.420 : en:01:29:02.420
-

[Цитировать]
ENIGMA

Большое Спасибо!
 
Показать сообщения:    

Текущее время: 08-Дек 09:00

Часовой пояс: UTC + 3


Вы не можете начинать темы
Вы не можете отвечать на сообщения
Вы не можете редактировать свои сообщения
Вы не можете удалять свои сообщения
Вы не можете голосовать в опросах
Вы не можете прикреплять файлы к сообщениям
Вы не можете скачивать файлы