[Цитировать]
ZHz

Название: Вспомнить всё
Оригинальное название: Total Recall
Год выпуска: 1990
Страна: США
Жанр: Фантастика, боевик, триллер, детектив, приключения
Продолжительность: 01:53:36
Перевод: Профессиональный, Авторский (А.Гаврилов, Ю.Живов, В.Горчаков)
Субтитры: Русские, английские
Режиссер: Пол Верховен-В ролях: Арнольд Шварценеггер, Шэрон Стоун, Рейчел Тикотин, Ронни Кокс, Майкл Айронсайд, Маршалл Белл, Мэл Джонсон мл., Майкл Чэмпион, Рой Броксмит, Рэй Бэйкер--Описание: В 2048 году жизнь простого рабочего парня Дага Куэйда скучна и однообразна. Поэтому, чтобы хоть как-то поразвлечься, он решает воспользоваться услугами некой компании, которая за определенную плату посылает в его мозг импульсы, создающие полную иллюзию того, что он - другой человек, живущий другой, интересной жизнью.
Все бы хорошо, но после сеанса Дагу совершенно невозможно понять, кто же он на самом деле - простой работяга или спецназовец, владеющий всеми видами оружия и боевых искусств. Его боятся, его хотят убить, на него открыт сезон охоты; даже любимая жена пытается свернуть ему шею. Теперь, чтобы выжить, ему необходимо вспомнить, вспомнить все...
--
СЭМПЛ
Кодек: AVC
Формат: MKV
Качество: BDRip 1080p
Видео: 1920x1032, 59.940 fps, 23.9 Mbps
Аудио №1:AC-3, 6 ch, 448 Kbps, 48000 Hz (R5 - CP Digital)
Аудио №2:AC-3, 6 ch, 448 Kbps, 48000 Hz (Superbit)
Аудио №3:AC-3, 2 ch, 192 Kbps, 48000 Hz (ОРТ-VHS)
Аудио №4:AC-3, 2 ch, 192 Kbps, 48000 Hz (РТР-VHS)
Аудио №5:AC-3, 2 ch, 192 Kbps, 48000 Hz (В.Горчаков-VHS)
Аудио №6:AC-3, 6 ch, 448 Kbps, 48000 Hz (А.Гаврилов)
Аудио №7:AC-3, 6 ch, 448 Kbps, 48000 Hz (Ю.Живов)
Аудио №8:AC-3, 6 ch, 640 Kbps, 48000 Hz (оригинал)
Навигация по главам: есть

MediaInfo

General
Unique ID : 228254786090376986331825638861301685050 (0xABB845D2D20E562481075262EB311B3A)
Complete name : J:\60FPS\Total Recall\Total Recall [60FPS by ZHz].mkv
Format : Matroska
Format version : Version 4 / Version 2
File size : 21.8 GiB
Duration : 1h 53mn
Overall bit rate : 27.5 Mbps
Movie name : Вспомнить всё.(1990).BDRip.1080p.[envy]
Encoded date : UTC 2015-01-10 19:08:46
Writing application : mkvmerge v7.5.0 ('Glass Culture') 64bit built on Jan 4 2015 16:48:44
Writing library : libebml v1.3.1 + libmatroska v1.4.2
DURATION : 01:45:12.222000000
NUMBER_OF_FRAMES : 868
NUMBER_OF_BYTES : 32713
_STATISTICS_WRITING_APP : mkvmerge v7.5.0 ('Glass Culture') 64bit built on Jan 4 2015 16:48:44
_STATISTICS_WRITING_DATE_UTC : 2015-01-10 19:08:46
_STATISTICS_TAGS : BPS DURATION NUMBER_OF_FRAMES NUMBER_OF_BYTES
Video
ID : 1
Format : AVC
Format/Info : Advanced Video Codec
Format profile : High@L4.2
Format settings, CABAC : Yes
Format settings, ReFrames : 4 frames
Codec ID : V_MPEG4/ISO/AVC
Duration : 1h 53mn
Bit rate : 23.9 Mbps
Width : 1 920 pixels
Height : 1 032 pixels
Display aspect ratio : 1.85:1
Frame rate mode : Constant
Frame rate : 59.880 fps
Original frame rate : 59.940 fps
Color space : YUV
Chroma subsampling : 4:2:0
Bit depth : 8 bits
Scan type : Progressive
Bits/(Pixel*Frame) : 0.202
Stream size : 19.0 GiB (87%)
Writing library : x264 core 130 r2273 b3065e6
Encoding settings : cabac=1 / ref=4 / deblock=1:-1:-1 / analyse=0x3:0x111 / me=esa / subme=7 / psy=1 / psy_rd=1.00:0.15 / mixed_ref=1 / me_range=4 / chroma_me=1 / trellis=2 / 8x8dct=1 / cqm=0 / deadzone=21,11 / fast_pskip=1 / chroma_qp_offset=-3 / threads=12 / lookahead_threads=3 / sliced_threads=0 / nr=0 / decimate=1 / interlaced=0 / bluray_compat=0 / constrained_intra=0 / bframes=5 / b_pyramid=2 / b_adapt=2 / b_bias=0 / direct=2 / weightb=1 / open_gop=0 / weightp=2 / keyint=250 / keyint_min=25 / scenecut=40 / intra_refresh=0 / rc_lookahead=50 / rc=crf / mbtree=1 / crf=16.7 / qcomp=0.60 / qpmin=0 / qpmax=69 / qpstep=4 / ip_ratio=1.40 / aq=1:1.00
Language : English
Default : Yes
Forced : No
DURATION : 01:53:36.116000000
NUMBER_OF_FRAMES : 408558
NUMBER_OF_BYTES : 20861149554
_STATISTICS_WRITING_APP : mkvmerge v7.5.0 ('Glass Culture') 64bit built on Jan 4 2015 16:48:44
_STATISTICS_WRITING_DATE_UTC : 2015-01-10 19:08:46
_STATISTICS_TAGS : BPS DURATION NUMBER_OF_FRAMES NUMBER_OF_BYTES
Audio #1
ID : 2
Format : AC-3
Format/Info : Audio Coding 3
Mode extension : CM (complete main)
Format settings, Endianness : Big
Codec ID : A_AC3
Duration : 1h 53mn
Bit rate mode : Constant
Bit rate : 448 Kbps
Channel(s) : 6 channels
Channel positions : Front: L C R, Side: L R, LFE
Sampling rate : 48.0 KHz
Bit depth : 16 bits
Compression mode : Lossy
Stream size : 364 MiB (2%)
Title : R5 - CP Digital
Language : Russian
Default : Yes
Forced : No
Audio #2
ID : 3
Format : AC-3
Format/Info : Audio Coding 3
Mode extension : CM (complete main)
Format settings, Endianness : Big
Codec ID : A_AC3
Duration : 1h 53mn
Bit rate mode : Constant
Bit rate : 448 Kbps
Channel(s) : 6 channels
Channel positions : Front: L C R, Side: L R, LFE
Sampling rate : 48.0 KHz
Bit depth : 16 bits
Compression mode : Lossy
Stream size : 364 MiB (2%)
Title : Superbit
Language : Russian
Default : No
Forced : No
Audio #3
ID : 4
Format : AC-3
Format/Info : Audio Coding 3
Mode extension : CM (complete main)
Format settings, Endianness : Big
Codec ID : A_AC3
Duration : 1h 53mn
Bit rate mode : Constant
Bit rate : 192 Kbps
Channel(s) : 2 channels
Channel positions : Front: L R
Sampling rate : 48.0 KHz
Bit depth : 16 bits
Compression mode : Lossy
Stream size : 156 MiB (1%)
Title : ОРТ, VHS
Language : Russian
Default : No
Forced : No
Audio #4
ID : 5
Format : AC-3
Format/Info : Audio Coding 3
Mode extension : CM (complete main)
Format settings, Endianness : Big
Codec ID : A_AC3
Duration : 1h 53mn
Bit rate mode : Constant
Bit rate : 192 Kbps
Channel(s) : 2 channels
Channel positions : Front: L R
Sampling rate : 48.0 KHz
Bit depth : 16 bits
Compression mode : Lossy
Stream size : 156 MiB (1%)
Title : РТР, VHS
Language : Russian
Default : No
Forced : No
Audio #5
ID : 6
Format : AC-3
Format/Info : Audio Coding 3
Mode extension : CM (complete main)
Format settings, Endianness : Big
Codec ID : A_AC3
Duration : 1h 53mn
Bit rate mode : Constant
Bit rate : 192 Kbps
Channel(s) : 2 channels
Channel positions : Front: L R
Sampling rate : 48.0 KHz
Bit depth : 16 bits
Compression mode : Lossy
Stream size : 156 MiB (1%)
Title : Gorchakov, VHS
Language : Russian
Default : No
Forced : No
Audio #6
ID : 7
Format : AC-3
Format/Info : Audio Coding 3
Mode extension : CM (complete main)
Format settings, Endianness : Big
Codec ID : A_AC3
Duration : 1h 53mn
Bit rate mode : Constant
Bit rate : 448 Kbps
Channel(s) : 6 channels
Channel positions : Front: L C R, Side: L R, LFE
Sampling rate : 48.0 KHz
Bit depth : 16 bits
Compression mode : Lossy
Stream size : 364 MiB (2%)
Title : Gavrilov
Language : Russian
Default : No
Forced : No
Audio #7
ID : 8
Format : AC-3
Format/Info : Audio Coding 3
Mode extension : CM (complete main)
Format settings, Endianness : Big
Codec ID : A_AC3
Duration : 1h 53mn
Bit rate mode : Constant
Bit rate : 448 Kbps
Channel(s) : 6 channels
Channel positions : Front: L C R, Side: L R, LFE
Sampling rate : 48.0 KHz
Bit depth : 16 bits
Compression mode : Lossy
Stream size : 364 MiB (2%)
Title : Zhivov
Language : Russian
Default : No
Forced : No
Audio #8
ID : 9
Format : AC-3
Format/Info : Audio Coding 3
Mode extension : CM (complete main)
Format settings, Endianness : Big
Codec ID : A_AC3
Duration : 1h 53mn
Bit rate mode : Constant
Bit rate : 640 Kbps
Channel(s) : 6 channels
Channel positions : Front: L C R, Side: L R, LFE
Sampling rate : 48.0 KHz
Bit depth : 16 bits
Compression mode : Lossy
Stream size : 520 MiB (2%)
Title : Eng
Language : English
Default : No
Forced : No
Text #1
ID : 10
Format : UTF-8
Codec ID : S_TEXT/UTF8
Codec ID/Info : UTF-8 Plain Text
Title : full
Language : Russian
Default : No
Forced : No
Text #2
ID : 11
Format : UTF-8
Codec ID : S_TEXT/UTF8
Codec ID/Info : UTF-8 Plain Text
Title : full
Language : English
Default : No
Forced : No
Menu
00:00:00.000 : :Chapter 01
00:06:07.492 : :Chapter 02
00:11:43.619 : :Chapter 03
00:18:31.568 : :Chapter 04
00:25:08.965 : :Chapter 05
00:29:55.960 : :Chapter 06
00:37:24.659 : :Chapter 07
00:43:30.232 : :Chapter 08
00:48:55.182 : :Chapter 09
00:55:22.944 : :Chapter 10
01:00:24.078 : :Chapter 11
01:15:43.747 : :Chapter 12
01:20:37.541 : :Chapter 13
01:27:28.868 : :Chapter 14
01:32:41.555 : :Chapter 15
01:40:16.010 : :Chapter 16

Скриншоты

[Цитировать]
vitamin2907

Их-хаа!!! Крутотень какая!!!! Спасибо огромное!!!))))

[Цитировать]
ZHz

Не за что

[Цитировать]
Владимир 1965

Большое человеческое спасибо

[Цитировать]
Медведь

Нет закачки,да наши проблемы...

[Цитировать]
Медведь

Закачка пошла,ура товарищи))))
 
Показать сообщения:    

Текущее время: 24-Май 09:03

Часовой пояс: UTC + 3


Вы не можете начинать темы
Вы не можете отвечать на сообщения
Вы не можете редактировать свои сообщения
Вы не можете удалять свои сообщения
Вы не можете голосовать в опросах
Вы не можете прикреплять файлы к сообщениям
Вы не можете скачивать файлы