[Цитировать]
mimok

Всё могу / Absolutely Anything (2015) BDRip 720p | 60fps«Суперсила и никакой ответственности!»- Информация о фильме
Название: Всё могу
Оригинальное название: Absolutely Anything
Год выхода: 2015
Жанр: Фантастика, комедия
Режиссер: Терри Джонс
Продюсер: Билл Джонс, Бенджамин Тимлетт, Крис Чессер
В ролях: Саймон Пегг, Кейт Бекинсейл, Санджив Бхаскар, Роб Риггл, Роберт Баферст, Эдди Иззард, Джоанна Ламли, Марианн Олдхэм, Эмма Пирсон, Мира Сайал, Моджо, Робин Уильямс
Описание фильма:
Злобные инопланетяне, собираясь уничтожить Землю, дают ей последний шанс — наделяют учителя-неудачника Нила Кларка способностью исполнять любые желания. Он бы мог положить конец войнам или воскресить величайшие умы всех времен. Вот только как заманчиво: стать президентом США, соблазнить неприступную красотку или заставить заговорить собственного пса. Спасет ли Нил Кларк землю или устроит полный беспредел?
Страна: Великобритания, США
Студия: Bill and Ben Productions, GFM films
Продолжительность: 01:25:30
Перевод: Дублированный (IPTV)
Субтитры: Вшитые, не отключаемые
Язык субтитров: Русский

Дата мировой премьеры:12 августа 2015
Дата российской премьеры:19 ноября 2015, «Экспонента»
Файл
Формат: MKV
Кодек: MPEG-4 AVC/H.264
Качество: BDRip 720p
Видео: ~ 10.1 Мбит/сек, 1280 x 544, 59.940 кадров/сек
Аудио: AC3 5.1, 48.0 KHz, 384 Кбит/сек - Русский

MediaInfo

Общее
Уникальный идентификатор : 239886525403652401803811046424840541801 (0xB47876D948B2A0CD8A89FDED6C449669)
Полное имя : E:\Торренты\Absolutely Anything 60fps.mkv
Формат : Matroska
Версия формата : Version 2
Размер файла : 6,36 Гбайт
Продолжительность : 1 ч. 25 м.
Общий поток : 10,7 Мбит/сек
Дата кодирования : UTC 2016-01-22 23:46:27
Программа кодирования : mkvmerge v6.1.0 ('Old Devil') built on Mar 4 2013 09:10:42
Библиотека кодирования : libebml v1.3.0 + libmatroska v1.4.0
Видео
Идентификатор : 1
Формат : AVC
Формат/Информация : Advanced Video Codec
Профиль формата : High@L4.1
Параметр CABAC формата : Да
Параметр ReFrames формата : 6 кадров
Идентификатор кодека : V_MPEG4/ISO/AVC
Продолжительность : 1 ч. 25 м.
Битрейт : 10,1 Мбит/сек
Ширина : 1280 пикселей
Высота : 544 пикселя
Соотношение сторон : 2,35:1
Режим частоты кадров : Постоянный
Частота кадров : 59,880 кадров/сек
Частота кадров в оригинале : 59,940 кадров/сек
Цветовое пространство : YUV
Субдискретизация насыщенности : 4:2:0
Битовая глубина : 8 бит
Тип развёртки : Прогрессивная
Бит/(Пиксели*Кадры) : 0.241
Размер потока : 6,01 Гбайт (94%)
Библиотека кодирования : x264 core 130 r2273 b3065e6
Настройки программы : cabac=1 / ref=6 / deblock=1:0:0 / analyse=0x3:0x133 / me=umh / subme=8 / psy=1 / psy_rd=1.00:0.15 / mixed_ref=1 / me_range=20 / chroma_me=1 / trellis=2 / 8x8dct=1 / cqm=0 / deadzone=21,11 / fast_pskip=0 / chroma_qp_offset=-3 / threads=6 / lookahead_threads=2 / sliced_threads=0 / nr=0 / decimate=0 / interlaced=0 / bluray_compat=0 / constrained_intra=0 / bframes=8 / b_pyramid=2 / b_adapt=2 / b_bias=0 / direct=1 / weightb=1 / open_gop=0 / weightp=2 / keyint=250 / keyint_min=25 / scenecut=40 / intra_refresh=0 / rc=crf / mbtree=0 / crf=16.0 / qcomp=0.63 / qpmin=10 / qpmax=51 / qpstep=4 / ip_ratio=1.40 / pb_ratio=1.30 / aq=1:1.20
Default : Да
Forced : Нет
Аудио
Идентификатор : 2
Формат : AC-3
Формат/Информация : Audio Coding 3
Расширение режима : CM (complete main)
Параметр Endianness формата : Big
Идентификатор кодека : A_AC3
Продолжительность : 1 ч. 25 м.
Вид битрейта : Постоянный
Битрейт : 384 Кбит/сек
Каналы : 6 каналов
Расположение каналов : Front: L C R, Side: L R, LFE
Частота : 48,0 КГц
Битовая глубина : 16 бит
Метод сжатия : С потерями
Размер потока : 235 Мбайт (4%)
Default : Да
Forced : Нет
Скриншоты:

Релиз подготовлен 60 - fps

[Цитировать]
dzubakr

хороший фильм, хорошее качество, спс.
почтим память великого актёра Плачу

[Цитировать]
ENIGMA

Спасибо Большое :)

[Цитировать]
DIMMM52

фильм ржачный, спс, жаль Бекинсейл слегка постарела.
 
Показать сообщения:    

Текущее время: 08-Дек 09:03

Часовой пояс: UTC + 3


Вы не можете начинать темы
Вы не можете отвечать на сообщения
Вы не можете редактировать свои сообщения
Вы не можете удалять свои сообщения
Вы не можете голосовать в опросах
Вы не можете прикреплять файлы к сообщениям
Вы не можете скачивать файлы