Неистовый / Unhinged (2020) BDRip 1080p | 60 fps Хищник : Антология / Predator : Antology (1987-2018) BDRip 1080p | 60 fps Танго и Кэш / Tango & Cash (1989) BDRemux 1080p | 60 fps Властелин колец: Трилогия / The Lord of the Rings: Trilogy (2001-2003) BDRip-AVC | Extended Cut | 60 fps Армагеддон / Armageddon (1998) BDRip 720p | 60 fps Не входи / The Owners(2020) BDRip 720p | 60 fps Звездный десант / Starship Troopers (1997) BDRip 1080p | 60 fps Голый пистолет 2 1/2: Запах страха / The Naked Gun 2½: The Smell of Fear (1991) BDRip 1080p | 60 fps
  1. Longevity:
    4 years 9 months
    Posts:
    1596
    Gender:
    Male
    Фильм «Живи вечно или умри, пытаясь» Фильм- Информация
    Название: Время
    Оригинальное название: In Time
    Год выхода: 2011
    Жанр: фантастика, триллер, драма, мелодрама, криминал
    Режиссер: Эндрю Никкол
    Сценарий: Эндрю Никкол
    Продюсер: Марк Абрахам, Эрик Ньюман, Эндрю Никкол
    В ролях: Джастин Тимберлэйк,Аманда Сайфред,Киллиан Мёрфи,Алекс Петтифер,Винсент Картайзер,Джонни Галэки,Коллинс Пенни,Тоби Хемингуэй,Оливия Уайлд,Шайло Уствальд

    Сюжет:
    Добро пожаловать в мир, где время стало единственной и самой твердой валютой, где люди генетически запрограммированы так, что в 25 лет перестают стареть. Правда, последующие годы стоят денег. И вот богатые становятся практически бессмертными, а бедные, как всегда, обречены сражаться за жизнь.
    Уилл, бунтарь из гетто, несправедливо обвинен в убийстве с целью грабежа времени и вынужден, захватив заложницу, пуститься в бега. Так, ежеминутно рискуя жизнью, эти двое становятся грозным оружием в борьбе с системой. Но вот вопрос: кто кого? А может быть, в дело вмешается третья сила?..
    -- Страна: США
    Продолжительность: 01:49:16

    Файл
    Кодек: MPEG4/ISO/AVC H.264
    Формат: MKV
    Качество: BDRip 720p | 60 fps
    Видео: 1280 x 544 (2.353) | 59.940 fps | 12,0 Мбит/сек
    Аудио: AC-3 | 5.1 | 48 kHz | 448 Кбит/сек| 16 bit | Дубляж |
    Субтитры: Russian

    MedifInfo

    Видео
    Идентификатор : 1
    Формат : AVC
    Формат/Информация : Advanced Video Codec
    Профиль формата : [email protected]
    Параметр CABAC формата : Да
    Параметр ReFrames формата : 9 кадров
    Идентификатор кодека : V_MPEG4/ISO/AVC
    Продолжительность : 1 ч. 49 м.
    Битрейт : 12,0 Мбит/сек
    Ширина : 1280 пикселей
    Высота : 544 пикселя
    Соотношение сторон : 2,35:1
    Режим частоты кадров : Постоянный
    Частота кадров : 59,940 (59940/1000) кадров/сек
    Цветовое пространство : YUV
    Субдискретизация насыщенности : 4:2:0
    Битовая глубина : 8 бит
    Тип развёртки : Прогрессивная
    Бит/(Пиксели*Кадры) : 0.288
    Размер потока : 8,97 Гбайт (94%)
    Библиотека кодирования : x264 core 133 r2334 a3ac64b
    Настройки программы : cabac=1 / ref=9 / deblock=1:-1:-1 / analyse=0x3:0 / me=umh / subme=9 / psy=1 / psy_rd=1.00:0.00 / mixed_ref=0 / me_range=24 / chroma_me=1 / trellis=1 / 8x8dct=1 / cqm=0 / deadzone=21,11 / fast_pskip=1 / chroma_qp_offset=-2 / threads=6 / lookahead_threads=1 / sliced_threads=0 / nr=0 / decimate=1 / interlaced=0 / bluray_compat=0 / constrained_intra=0 / bframes=6 / b_pyramid=2 / b_adapt=2 / b_bias=0 / direct=3 / weightb=1 / open_gop=0 / weightp=2 / keyint=250 / keyint_min=25 / scenecut=40 / intra_refresh=0 / rc_lookahead=40 / rc=2pass / mbtree=1 / bitrate=12000 / ratetol=1.0 / qcomp=0.60 / qpmin=0 / qpmax=69 / qpstep=4 / cplxblur=20.0 / qblur=0.5 / ip_ratio=1.40 / aq=1:1.00
    Default : Да
    Forced : Нет
    Аудио
    Идентификатор : 2
    Формат : AC-3
    Формат/Информация : Audio Coding 3
    Расширение режима : CM (complete main)
    Параметр Endianness формата : Big
    Идентификатор кодека : A_AC3
    Продолжительность : 1 ч. 49 м.
    Вид битрейта : Постоянный
    Битрейт : 448 Кбит/сек
    Каналы : 6 каналов
    Расположение каналов : Front: L C R, Side: L R, LFE
    Частота : 48,0 КГц
    Частота кадров : 31,250 кадров/сек (1536 spf)
    Битовая глубина : 16 бит
    Метод сжатия : С потерями
    Размер потока : 350 Мбайт (4%)
    Заголовок : AC3 | RUS | 448
    Язык : Russian
    Default : Нет
    Forced : Нет
    Текст
    Идентификатор : 3
    Формат : UTF-8
    Идентификатор кодека : S_TEXT/UTF8
    Идентификатор кодека/Информация : UTF-8 Plain Text
    Заголовок : Sub | Rus | Forced
    Язык : Russian
    Default : Нет
    Forced : Нет
    Меню
    00:00:00.000 : en:Chapter 1
    00:05:54.271 : en:Chapter 2
    00:10:50.733 : en:Chapter 3
    00:18:58.095 : en:Chapter 4
    00:22:16.377 : en:Chapter 5
    00:25:30.446 : en:Chapter 6
    00:29:51.915 : en:Chapter 7
    00:34:41.746 : en:Chapter 8
    00:38:24.886 : en:Chapter 9
    00:41:23.898 : en:Chapter 10
    00:44:44.724 : en:Chapter 11
    00:48:08.302 : en:Chapter 12
    00:51:32.548 : en:Chapter 13
    00:53:56.150 : en:Chapter 14
    00:56:16.873 : en:Chapter 15
    01:00:25.372 : en:Chapter 16
    01:05:41.146 : en:Chapter 17
    01:08:57.800 : en:Chapter 18
    01:11:19.484 : en:Chapter 19
    01:14:05.107 : en:Chapter 20
    01:16:48.979 : en:Chapter 21
    01:20:20.983 : en:Chapter 22
    01:22:44.293 : en:Chapter 23
    01:27:17.107 : en:Chapter 24
    01:29:22.399 : en:Chapter 25
    01:33:26.017 : en:Chapter 26
    01:37:16.956 : en:Chapter 27
    01:42:56.462 : en:Chapter 28
  2. Longevity:
    4 years 5 months
    Posts:
    45
    Gender:
    Male
    "Никто не должен жить вечно, если другие рассплачиваются за это жизнью". Мощная отссылка на нашу систему. Мне очень понравилось. Спасибо за рип. Саундтрек тоже супер
    06-Aug-2017 18:44 (after 4 months 30 days)


You cannot post new topics in this forum
You cannot reply to topics in this forum
You cannot edit your posts in this forum
You cannot delete your posts in this forum
You cannot vote in polls in this forum
You cannot attach files in this forum
You cannot download files in this forum