1. Longevity:
    4 years 10 months
    Posts:
    336
    Gender:
    Male
    Заказать фильмы, клипы или любое другое видео в качестве 60fps может каждый!!!
    Стоимость одного видео 50руб. !!!
    Пишите Талямба в личку, всё обсудите...
    [kp]https://www.kinopoisk.ru/film/3954[/kp] [imdb]https://www.imdb.com/title/tt0120660/[/imdb] Враг государства / Enemy of the State (1998) BDRip 1080p | 60 fps Информация
    Название: Враг государства
    Оригинальное название: Enemy of the State
    Год выхода: 1998
    Жанр: Боевик, драма, триллер
    Режиссер: Тони Скотт / Tony Scott
    В ролях: Уилл Смит, Джин Хэкмен, Джон Войт, Лиза Боне, Реджина Кинг, Стюарт Уилсон, Лаура Кайот, Лорен Дин, Бэрри Пеппер, Иэн Харт, Джейк Бьюзи, Скотт Каан, Джейсон Ли, Гэбриел Бирн, Джеймс ЛеГрос, Дэн Батлер, Джек Блэк, Джейми Кеннеди, Бодхи Элфмэн, Джейкоб Чэмберс, Александра Белахойтис
    Страна: США
    Продолжительность: 2 ч. 12 м. 11 с.
    ----- Сюжет:
    Каждое мгновение своей жизни человек находится на виду, даже когда он уверен, что его никто не видит. В руки преуспевающего адвоката Роберта Дина попала страшная улика, разоблачающая высокопоставленного чиновника. Но секретная служба узнала об этом раньше Роберта и немедленно приняла меры. В ход пошли самые новейшие технологии: в современном мире не нужно быть магом, чтобы изменить человеческую судьбу, — достаточно просто подойти к компьютеру. За считанные дни из законопослушного гражданина Дин превратился в опасного преступника, на которого была объявлена настоящая охота. Когда адвокат найдет союзников и передаст им таинственную улику, полетят многие головы… если до этого он не лишится своей… ----- Файл
    Кодек: V_MPEG4/ISO/AVC
    Формат: MKV
    Качество: BDRip 1080p | 60 fps
    Видео: 1920 x 808 (2,40:1) | 59.940 fps | 25 Мбит/сек
    Аудио 1: AC3, 6 ch, 384 Кбит/с | Дубляж | iTunes | RUS |
    Аудио 2: АС3, 6 ch, 384 Кбит/с | Профессиональный (многоголосый закадровый) | 1+1 | RUS |
    Аудио 3: АС3, 6 ch, 640 Кбит/с | Оригинал | ENG |

    Субтитры: Русские, английские
    Главы: Есть

    MedifInfo

    Общее
    Уникальный идентификатор : 213754471352813201765361610627671221628 (0xA0CF9D1C4340A164BFDC72513FCD657C)
    Полное имя : D:\Movie\Враг государства (1998).mkv
    Формат : Matroska
    Версия формата : Version 2
    Размер файла : 24,3 Гбайт
    Продолжительность : 2 ч. 12 м.
    Общий поток : 26,3 Мбит/сек
    Название фильма : Враг государства 1998г.
    Дата кодирования : UTC 2021-11-07 08:45:52
    Программа кодирования : mkvmerge v5.8.0 ('No Sleep / Pillow') built on Sep 2 2012 15:37:04
    Библиотека кодирования : libebml v1.2.3 + libmatroska v1.3.0
    Attachments : Poster.jpg
    Видео
    Идентификатор : 1
    Формат : AVC
    Формат/Информация : Advanced Video Codec
    Профиль формата : High@L4.1
    Параметр CABAC формата : Да
    Параметр ReFrames формата : 5 кадров
    Режим смешивания : Header stripping
    Идентификатор кодека : V_MPEG4/ISO/AVC
    Продолжительность : 2 ч. 12 м.
    Битрейт : 25,0 Мбит/сек
    Ширина : 1920 пикселей
    Высота : 808 пикселей
    Соотношение сторон : 2,40:1
    Режим частоты кадров : Постоянный
    Частота кадров : 59,940 (60000/1001) кадров/сек
    Цветовое пространство : YUV
    Субдискретизация насыщенности : 4:2:0
    Битовая глубина : 8 бит
    Тип развёртки : Прогрессивная
    Бит/(Пиксели*Кадры) : 0.269
    Размер потока : 22,5 Гбайт (93%)
    Библиотека кодирования : x264 core 146 r2538 121396c
    Настройки программы : cabac=1 / ref=5 / deblock=1:0:0 / analyse=0x3:0x113 / me=umh / subme=8 / psy=1 / psy_rd=1.00:0.25 / mixed_ref=1 / me_range=32 / chroma_me=1 / trellis=1 / 8x8dct=1 / cqm=0 / deadzone=6,6 / fast_pskip=1 / chroma_qp_offset=-4 / threads=12 / lookahead_threads=3 / sliced_threads=0 / nr=0 / decimate=0 / interlaced=0 / bluray_compat=0 / constrained_intra=0 / bframes=3 / b_pyramid=2 / b_adapt=2 / b_bias=0 / direct=3 / weightb=1 / open_gop=0 / weightp=2 / keyint=600 / keyint_min=60 / scenecut=40 / intra_refresh=0 / rc_lookahead=50 / rc=2pass / mbtree=1 / bitrate=25000 / ratetol=1.0 / qcomp=0.80 / qpmin=0 / qpmax=69 / qpstep=4 / cplxblur=20.0 / qblur=0.5 / vbv_maxrate=50000 / vbv_bufsize=50000 / nal_hrd=none / filler=0 / ip_ratio=1.10 / aq=1:0.50
    Язык : English
    Default : Да
    Forced : Нет
    Аудио #1
    Идентификатор : 2
    Формат : AC-3
    Формат/Информация : Audio Coding 3
    Расширение режима : CM (complete main)
    Параметр Endianness формата : Big
    Режим смешивания : Header stripping
    Идентификатор кодека : A_AC3
    Продолжительность : 2 ч. 12 м.
    Вид битрейта : Постоянный
    Битрейт : 384 Кбит/сек
    Каналы : 6 каналов
    Расположение каналов : Front: L C R, Side: L R, LFE
    Частота : 48,0 КГц
    Частота кадров : 31,250 кадров/сек (1536 spf)
    Битовая глубина : 16 бит
    Метод сжатия : С потерями
    Размер потока : 363 Мбайт (1%)
    Заголовок : Дубляж iTunes
    Язык : Russian
    Default : Да
    Forced : Нет
    Аудио #2
    Идентификатор : 3
    Формат : AC-3
    Формат/Информация : Audio Coding 3
    Расширение режима : CM (complete main)
    Параметр Endianness формата : Big
    Режим смешивания : Header stripping
    Идентификатор кодека : A_AC3
    Продолжительность : 2 ч. 12 м.
    Вид битрейта : Постоянный
    Битрейт : 384 Кбит/сек
    Каналы : 6 каналов
    Расположение каналов : Front: L C R, Side: L R, LFE
    Частота : 48,0 КГц
    Частота кадров : 31,250 кадров/сек (1536 spf)
    Битовая глубина : 16 бит
    Метод сжатия : С потерями
    Размер потока : 363 Мбайт (1%)
    Заголовок : Профессиональный (многоголосый закадровый) 1+1
    Язык : Ukrainian
    Default : Нет
    Forced : Нет
    Аудио #3
    Идентификатор : 4
    Формат : AC-3
    Формат/Информация : Audio Coding 3
    Расширение режима : CM (complete main)
    Параметр Endianness формата : Big
    Режим смешивания : Header stripping
    Идентификатор кодека : A_AC3
    Продолжительность : 2 ч. 12 м.
    Вид битрейта : Постоянный
    Битрейт : 640 Кбит/сек
    Каналы : 6 каналов
    Расположение каналов : Front: L C R, Side: L R, LFE
    Частота : 48,0 КГц
    Частота кадров : 31,250 кадров/сек (1536 spf)
    Битовая глубина : 16 бит
    Метод сжатия : С потерями
    Размер потока : 605 Мбайт (2%)
    Заголовок : Оригинал
    Язык : English
    Default : Нет
    Forced : Нет
    Текст #1
    Идентификатор : 5
    Формат : UTF-8
    Идентификатор кодека : S_TEXT/UTF8
    Идентификатор кодека/Информация : UTF-8 Plain Text
    Язык : Russian
    Default : Нет
    Forced : Нет
    Текст #2
    Идентификатор : 6
    Формат : UTF-8
    Идентификатор кодека : S_TEXT/UTF8
    Идентификатор кодека/Информация : UTF-8 Plain Text
    Язык : English
    Default : Нет
    Forced : Нет
    Меню
    00:00:00.000 : :Program Start
    00:03:04.456 : :Eliminating the Opposition
    00:06:06.514 : :Opening Credits
    00:10:45.891 : :Taking On the Mob
    00:15:57.835 : :A Visit With Pintero
    00:21:28.787 : :A Problem at the Lake
    00:26:23.873 : :Zavitz's Tape
    00:32:01.711 : :Rabbit On the Run
    00:37:03.583 : :Dean's People
    00:42:14.823 : :Unexpected Visitors
    00:47:29.721 : :Getting Into Dean's Life
    00:52:33.150 : :Dean's Life in Shambles
    00:57:51.176 : :Conversation With Rachel
    01:03:34.227 : :A Rough Cab Ride
    01:08:43.399 : :Brill
    01:13:52.553 : :Moving Target
    01:19:07.451 : :Tunnel Vision
    01:24:09.836 : :The Jar
    01:29:47.673 : :Time Bomb
    01:34:55.272 : :Edward Lyle
    01:40:06.000 : :Turning the Tables
    01:45:24.026 : :A Call From Brill
    01:50:32.667 : :"Let the Games Begin"
    01:56:37.615 : :Getting the Tape Back
    02:01:49.385 : :Dean's Plan
    02:07:02.666 : :Wrap-Up
    02:12:09.796 : :End Credits

    Release was prepared by 60-fps.org



You cannot post new topics in this forum
You cannot reply to topics in this forum
You cannot edit your posts in this forum
You cannot delete your posts in this forum
You cannot vote in polls in this forum
You cannot attach files in this forum
You cannot download files in this forum