Неистовый / Unhinged (2020) BDRip 1080p | 60 fps Хищник : Антология / Predator : Antology (1987-2018) BDRip 1080p | 60 fps Танго и Кэш / Tango & Cash (1989) BDRemux 1080p | 60 fps Властелин колец: Трилогия / The Lord of the Rings: Trilogy (2001-2003) BDRip-AVC | Extended Cut | 60 fps Армагеддон / Armageddon (1998) BDRip 720p | 60 fps Роман с камнем / Romancing the Stone (1984) BDRip 1080p | 60 fps Не входи / The Owners(2020) BDRip 720p | 60 fps Звездный десант / Starship Troopers (1997) BDRip 1080p | 60 fps
  1. Longevity:
    6 years 8 months
    Posts:
    2414
    Gender:
    Male
    «Life's what you make it»- Информация
    Название: Возврат
    Оригинальное название: Cashback
    Год выхода: 2006
    Жанр: Драма, мелодрама, комедия
    Режиссер: Шон Эллис
    Сценарий: Шон Эллис
    Продюсер: Лене Босейджер, Шон Эллис, Дафна Гиннесс
    В ролях: Шон Биггерстаф, Эмилия Фокс, Стюарт Гудвин, Майкл Лэмбурн, Майкл Диксон, Мишель Райан, Эрика Эллис, Джей Бауэн, Шон Эванс, Кеннет Фахи, Стэн Эллис, Кэти Болл, Селеста Ходж, Ниа Робертс, Хатти Ример, Кинвара Бальфур, Чери Николь, Винни Ли, Лене Босейджер, Фрэнк Хескет, Хейли-Мари Коппин, Кили Хэзелл, Кристин Фуллер, Мишель Бентли, Гари Бисон, Катарина Олссон, Гэйл Дадли, Генриетта Басс, Саманта Блум, Эмилия Фентон, Ник Хэнкок, Ховард Уорд, Родди Эдейр, Ли Уилсон, Джеймс Смит, Гари МакНалти, Натали Дэннинг, Мэттью Ходжсон, Три Карр, Катрин Фалькенберг, Хейден Джонс, Грэхэм Уорд, Кубрик Эллис, Люси Холт, Дафна Гиннесс
    --Сюжет:
    Переживая болезненное расставание с любимой, Бен впадает в бессонницу. В освободившиеся 8 часов он начинает работать в ночную смену местного супермаркета, где главной задачей обслуживающего персонала является «времяубийство». Неожиданно Бен обнаруживает в себе необычную способность останавливать время, что даёт толчок его художественному таланту.- Страна: Великобритания
    Продолжительность: 01:42:03

    Файл
    Кодек: MPEG4/ISO/AVC/H.264
    Формат: MKV
    Качество: BDRip 720p | 60 fps
    Видео: 1280 x 544 (2.353) | 59.940 fps | 8.0 Мбит/сек
    Аудио 1: AC3 | 5.1 | 48 kHz | 448 kbps | 16 bit | Двухголосый закадровый - Студия "Инис" |
    Аудио 2: AC3 | 5.1 | 48 kHz | 448 kbps | 16 bit | Одноголосый закадровый - А.Алексеев |
    Аудио 3: AC3 | 5.1 | 48 kHz | 640 kbps | 16 bit | ENG |
    Субтитры: Русские, eng

    MedifInfo

    Видео
    Идентификатор : 1
    Формат : AVC
    Формат/Информация : Advanced Video Codec
    Профиль формата : [email protected]
    Параметр CABAC формата : Да
    Параметр ReFrames формата : 3 кадра
    Параметр GOP формата : M=3, N=72
    Идентификатор кодека : V_MPEG4/ISO/AVC
    Продолжительность : 1 ч. 42 м.
    Вид битрейта : Переменный
    Битрейт : 7615 Кбит/сек
    Максимальный битрейт : 8000 Кбит/сек
    Ширина : 1280 пикселей
    Высота : 544 пикселя
    Соотношение сторон : 2,35:1
    Режим частоты кадров : Постоянный
    Частота кадров : 59,880 кадров/сек
    Частота кадров в оригинале : 59,940 кадров/сек
    Стандарт вещания : PAL
    Цветовое пространство : YUV
    Субдискретизация насыщенности : 4:2:0
    Битовая глубина : 8 бит
    Тип развёртки : Прогрессивная
    Бит/(Пиксели*Кадры) : 0.183
    Размер потока : 5,43 Гбайт (82%)
    Заголовок : www.60-fps.org
    Язык : English
    Default : Да
    Forced : Нет
    Основные цвета : BT.601 NTSC
    Характеристики трансфера : BT.601
    Коэффициенты матрицы : BT.601
    colour_range : Limited
    Аудио #1
    Идентификатор : 2
    Формат : AC-3
    Формат/Информация : Audio Coding 3
    Расширение режима : CM (complete main)
    Параметр Endianness формата : Big
    Идентификатор кодека : A_AC3
    Продолжительность : 1 ч. 42 м.
    Вид битрейта : Постоянный
    Битрейт : 448 Кбит/сек
    Каналы : 6 каналов
    Расположение каналов : Front: L C R, Side: L R, LFE
    Частота : 48,0 КГц
    Битовая глубина : 16 бит
    Метод сжатия : С потерями
    Размер потока : 327 Мбайт (5%)
    Заголовок : Двухголосый закадровый - Студия "Инис"
    Язык : Russian
    Default : Да
    Forced : Нет
    Аудио #2
    Идентификатор : 3
    Формат : AC-3
    Формат/Информация : Audio Coding 3
    Расширение режима : CM (complete main)
    Параметр Endianness формата : Big
    Идентификатор кодека : A_AC3
    Продолжительность : 1 ч. 42 м.
    Вид битрейта : Постоянный
    Битрейт : 448 Кбит/сек
    Каналы : 6 каналов
    Расположение каналов : Front: L C R, Side: L R, LFE
    Частота : 48,0 КГц
    Битовая глубина : 16 бит
    Метод сжатия : С потерями
    Размер потока : 327 Мбайт (5%)
    Заголовок : Одноголосый закадровый - А.Алексеев
    Язык : Russian
    Default : Нет
    Forced : Нет
    Аудио #3
    Идентификатор : 4
    Формат : AC-3
    Формат/Информация : Audio Coding 3
    Расширение режима : CM (complete main)
    Параметр Endianness формата : Big
    Идентификатор кодека : A_AC3
    Продолжительность : 1 ч. 42 м.
    Вид битрейта : Постоянный
    Битрейт : 640 Кбит/сек
    Каналы : 6 каналов
    Расположение каналов : Front: L C R, Side: L R, LFE
    Частота : 48,0 КГц
    Битовая глубина : 16 бит
    Метод сжатия : С потерями
    Размер потока : 467 Мбайт (7%)
    Заголовок : eng
    Язык : English
    Default : Нет
    Forced : Нет
    Текст #1
    Идентификатор : 5
    Формат : UTF-8
    Идентификатор кодека : S_TEXT/UTF8
    Идентификатор кодека/Информация : UTF-8 Plain Text
    Язык : Russian
    Default : Нет
    Forced : Нет
    Текст #2
    Идентификатор : 6
    Формат : UTF-8
    Идентификатор кодека : S_TEXT/UTF8
    Идентификатор кодека/Информация : UTF-8 Plain Text
    Язык : English
    Default : Нет
    Forced : Нет
    Меню
    00:00:00.000 : en:Chapter 01
    00:01:20.747 : en:Chapter 02
    00:04:24.639 : en:Chapter 03
    00:10:39.972 : en:Chapter 04
    00:13:39.151 : en:Chapter 05
    00:16:52.678 : en:Chapter 06
    00:21:46.305 : en:Chapter 07
    00:25:01.500 : en:Chapter 08
    00:29:24.763 : en:Chapter 09
    00:32:43.503 : en:Chapter 10
    00:34:31.235 : en:Chapter 11
    00:40:06.362 : en:Chapter 12
    00:44:31.418 : en:Chapter 13
    00:47:32.307 : en:Chapter 14
    00:55:26.823 : en:Chapter 15
    00:58:53.780 : en:Chapter 16
    01:03:36.229 : en:Chapter 17
    01:11:02.466 : en:Chapter 18
    01:13:21.355 : en:Chapter 19
    01:17:19.801 : en:Chapter 20
    01:21:34.973 : en:Chapter 21
    01:28:49.907 : en:Chapter 22
    01:30:38.683 : en:Chapter 23
    01:35:57.752 : en:Chapter 24
    01:42:02.449 : en:Chapter 25

    Release was prepared by 60-fps.org

  2. Longevity:
    4 years 7 months
    Posts:
    110
    Gender:
    Male
    Какая-то нудная комедия...
    15-Jan-2017 20:59 (after 7 days)


You cannot post new topics in this forum
You cannot reply to topics in this forum
You cannot edit your posts in this forum
You cannot delete your posts in this forum
You cannot vote in polls in this forum
You cannot attach files in this forum
You cannot download files in this forum