[Цитировать]
Kryl

«Они были смертельно опасны на земле. Теперь у них появились крылья»- Информация
Название: Воздушная тюрьма
Оригинальное название: Con Air
Год выхода: 1997
Жанр: боевик, триллер, криминал
Режиссер: Саймон Уэст
Сценарий: Скотт Розенберг
Продюсер: Джерри Брукхаймер, Кенни Бейтс, Питер Богарт
В ролях: Николас Кейдж, Колм Мини, Джон Кьюсак, Майкелти Уильямсон, Ник Чинланд, Джон Малкович, Стив Бушеми, Винг Реймз, Дэйв Шаппелл, Рейчел Тикотин
--Сюжет:
«Воздушная тюрьма» — транспортное подразделение полиции США, перевозящее особо опасных преступников. Одним из этих рейсов возвращается домой Кэмерон По, освобожденный из тюрьмы после 8 лет заключения. Он так долго ждал этого и ничто не должно остановить его на пути домой.
Внезапно Кэмерон оказывается свидетелем захвата самолета, организованного опаснейшим рецидивистом Сайрусом «Вирусом» Гриссомом. Он решает взять ситуацию в свои руки и помочь полиции, ведь для него это — единственный шанс попасть домой. Только один человек на земле готов поверить ему — шериф Винс Ларкин, который вынужден преодолевать невероятные трудности, чтобы предотвратить бегство преступников и не позволить своим ретивым начальникам взорвать самолет вместе со всеми пассажирами.
- Страна: США, Япония
Продолжительность: 01:55:26

Файл
Кодек: MPEG4/ISO/AVC H.264
Формат: MKV
Качество: BDRip 720p | 60 fps
Видео: 1280 x 546 (2.344) | 59.940 fps | 8.0 Мбит/сек
Аудио 1: AC3 | 2.0 | 48 kHz | 192 kbps | 16 bit | Дубляж |
Аудио 2: AC3 | 5.1 | 48 kHz | 448 kbps | 16 bit | ОРТ - Профессиональный многоголосый |
Аудио 3: AC3 | 5.1 | 48 kHz | 448 kbps | 16 bit | НТВ - Профессиональный многоголосый |
Аудио 4: AC3 | 5.1 | 48 kHz | 448 kbps | 16 bit | Петр Гланц, Инна Королёва - двухголосый, закадровый |
Аудио 5: AC3 | 5.1 | 48 kHz | 448 kbps | 16 bit | CDV - одноголосый, закадровый |
Аудио 6: AC3 | 5.1 | 48 kHz | 448 kbps | 16 bit | Андрей Гаврилов - Авторский |
Аудио 7: AC3 | 5.1 | 48 kHz | 448 kbps | 16 bit | Юрий Живов - Авторский |
Аудио 8: AC3 | 5.1 | 48 kHz | 448 kbps | 16 bit | ENG |
Субтитры: Russian, English

MedifInfo

Видео
Идентификатор : 1
Формат : AVC
Формат/Информация : Advanced Video Codec
Профиль формата : High@L4.1
Параметр CABAC формата : Да
Параметр ReFrames формата : 5 кадров
Идентификатор кодека : V_MPEG4/ISO/AVC
Продолжительность : 1 ч. 55 м.
Битрейт : 7999 Кбит/сек
Ширина : 1280 пикселей
Высота : 546 пикселей
Соотношение сторон : 2,35:1
Режим частоты кадров : Постоянный
Частота кадров : 59,880 кадров/сек
Частота кадров в оригинале : 59,940 кадров/сек
Цветовое пространство : YUV
Субдискретизация насыщенности : 4:2:0
Битовая глубина : 8 бит
Тип развёртки : Прогрессивная
Бит/(Пиксели*Кадры) : 0.191
Размер потока : 6,27 Гбайт (69%)
Заголовок : www.60-fps.org
Библиотека кодирования : x264 core 148 r2638 7599210
Настройки программы : cabac=1 / ref=5 / deblock=1:-1:-1 / analyse=0x3:0x113 / me=umh / subme=8 / psy=1 / psy_rd=1.00:0.25 / mixed_ref=1 / me_range=32 / chroma_me=1 / trellis=1 / 8x8dct=1 / cqm=0 / deadzone=6,6 / fast_pskip=1 / chroma_qp_offset=-4 / threads=12 / lookahead_threads=2 / sliced_threads=0 / nr=0 / decimate=0 / interlaced=0 / bluray_compat=0 / constrained_intra=0 / bframes=3 / b_pyramid=2 / b_adapt=2 / b_bias=0 / direct=3 / weightb=1 / open_gop=0 / weightp=2 / keyint=599 / keyint_min=59 / scenecut=40 / intra_refresh=0 / rc_lookahead=50 / rc=2pass / mbtree=1 / bitrate=7999 / ratetol=1.0 / qcomp=0.80 / qpmin=0 / qpmax=69 / qpstep=4 / cplxblur=20.0 / qblur=0.5 / vbv_maxrate=62500 / vbv_bufsize=78125 / nal_hrd=none / filler=0 / ip_ratio=1.10 / aq=1:0.50
Default : Да
Forced : Нет
Аудио #1
Идентификатор : 2
Формат : AC-3
Формат/Информация : Audio Coding 3
Расширение режима : CM (complete main)
Параметр Endianness формата : Big
Идентификатор кодека : A_AC3
Продолжительность : 1 ч. 55 м.
Вид битрейта : Постоянный
Битрейт : 192 Кбит/сек
Каналы : 2 канала
Расположение каналов : Front: L R
Частота : 48,0 КГц
Битовая глубина : 16 бит
Метод сжатия : С потерями
Размер потока : 159 Мбайт (2%)
Заголовок : Дубляж
Default : Да
Forced : Нет
Аудио #2
Идентификатор : 3
Формат : AC-3
Формат/Информация : Audio Coding 3
Расширение режима : CM (complete main)
Параметр Endianness формата : Big
Идентификатор кодека : A_AC3
Продолжительность : 1 ч. 55 м.
Вид битрейта : Постоянный
Битрейт : 448 Кбит/сек
Каналы : 6 каналов
Расположение каналов : Front: L C R, Side: L R, LFE
Частота : 48,0 КГц
Битовая глубина : 16 бит
Метод сжатия : С потерями
Размер потока : 370 Мбайт (4%)
Заголовок : ОРТ
Default : Нет
Forced : Нет
Аудио #3
Идентификатор : 4
Формат : AC-3
Формат/Информация : Audio Coding 3
Расширение режима : CM (complete main)
Параметр Endianness формата : Big
Идентификатор кодека : A_AC3
Продолжительность : 1 ч. 55 м.
Вид битрейта : Постоянный
Битрейт : 448 Кбит/сек
Каналы : 6 каналов
Расположение каналов : Front: L C R, Side: L R, LFE
Частота : 48,0 КГц
Битовая глубина : 16 бит
Метод сжатия : С потерями
Размер потока : 370 Мбайт (4%)
Заголовок : НТВ
Default : Нет
Forced : Нет
Аудио #4
Идентификатор : 5
Формат : AC-3
Формат/Информация : Audio Coding 3
Расширение режима : CM (complete main)
Параметр Endianness формата : Big
Идентификатор кодека : A_AC3
Продолжительность : 1 ч. 55 м.
Вид битрейта : Постоянный
Битрейт : 448 Кбит/сек
Каналы : 6 каналов
Расположение каналов : Front: L C R, Side: L R, LFE
Частота : 48,0 КГц
Битовая глубина : 16 бит
Метод сжатия : С потерями
Размер потока : 370 Мбайт (4%)
Заголовок : Петр Гланц, Инна Королёва
Default : Нет
Forced : Нет
Аудио #5
Идентификатор : 6
Формат : AC-3
Формат/Информация : Audio Coding 3
Расширение режима : CM (complete main)
Параметр Endianness формата : Big
Идентификатор кодека : A_AC3
Продолжительность : 1 ч. 55 м.
Вид битрейта : Постоянный
Битрейт : 448 Кбит/сек
Каналы : 6 каналов
Расположение каналов : Front: L C R, Side: L R, LFE
Частота : 48,0 КГц
Битовая глубина : 16 бит
Метод сжатия : С потерями
Размер потока : 370 Мбайт (4%)
Заголовок : CDV
Default : Нет
Forced : Нет
Аудио #6
Идентификатор : 7
Формат : AC-3
Формат/Информация : Audio Coding 3
Расширение режима : CM (complete main)
Параметр Endianness формата : Big
Идентификатор кодека : A_AC3
Продолжительность : 1 ч. 55 м.
Вид битрейта : Постоянный
Битрейт : 448 Кбит/сек
Каналы : 6 каналов
Расположение каналов : Front: L C R, Side: L R, LFE
Частота : 48,0 КГц
Битовая глубина : 16 бит
Метод сжатия : С потерями
Размер потока : 370 Мбайт (4%)
Заголовок : Андрей Гаврилов
Default : Нет
Forced : Нет
Аудио #7
Идентификатор : 8
Формат : AC-3
Формат/Информация : Audio Coding 3
Расширение режима : CM (complete main)
Параметр Endianness формата : Big
Идентификатор кодека : A_AC3
Продолжительность : 1 ч. 55 м.
Вид битрейта : Постоянный
Битрейт : 448 Кбит/сек
Каналы : 6 каналов
Расположение каналов : Front: L C R, Side: L R, LFE
Частота : 48,0 КГц
Битовая глубина : 16 бит
Метод сжатия : С потерями
Размер потока : 370 Мбайт (4%)
Заголовок : Юрий Живов
Default : Нет
Forced : Нет
Аудио #8
Идентификатор : 9
Формат : AC-3
Формат/Информация : Audio Coding 3
Расширение режима : CM (complete main)
Параметр Endianness формата : Big
Идентификатор кодека : A_AC3
Продолжительность : 1 ч. 55 м.
Вид битрейта : Постоянный
Битрейт : 448 Кбит/сек
Каналы : 6 каналов
Расположение каналов : Front: L C R, Side: L R, LFE
Частота : 48,0 КГц
Битовая глубина : 16 бит
Метод сжатия : С потерями
Размер потока : 370 Мбайт (4%)
Заголовок : ENG
Default : Нет
Forced : Нет
Текст #1
Идентификатор : 10
Формат : UTF-8
Идентификатор кодека : S_TEXT/UTF8
Идентификатор кодека/Информация : UTF-8 Plain Text
Заголовок : Rus
Язык : Russian
Default : Нет
Forced : Нет
Текст #2
Идентификатор : 11
Формат : UTF-8
Идентификатор кодека : S_TEXT/UTF8
Идентификатор кодека/Информация : UTF-8 Plain Text
Заголовок : Eng
Язык : English
Default : Нет
Forced : Нет
Меню
00:00:00.000 : :Chapter 01
00:10:03.394 : :Chapter 02
00:28:25.912 : :Chapter 03
00:42:52.528 : :Chapter 04
00:57:22.981 : :Chapter 05
01:09:02.596 : :Chapter 06
01:22:53.301 : :Chapter 07
01:34:51.143 : :Chapter 08
01:40:36.572 : :Chapter 09
01:48:10.525 : :Chapter 10
Киношка сделана по заказу пользователя
вячеслав

Релиз подготовлен 60 - fps

[Цитировать]
Одиссей

Уважаемый Kryl,приветствую вас.Благодарю за фильм.Хотелось бы увидеть если это возможно Призрак и тьма 1996 года.Спасибо.

[Цитировать]
Kryl

5990Уважаемый Kryl,приветствую вас.Благодарю за фильм.Хотелось бы увидеть если это возможно Призрак и тьма 1996 года.Спасибо.
Киношки делаю , под заказ . Все вопросы в личку .

[Цитировать]
anime81

Thanks for this movie

[Цитировать]
Lagat

Пожалуйста встаньте на раздачу!
 
Показать сообщения:    

Текущее время: 08-Дек 09:03

Часовой пояс: UTC + 3


Вы не можете начинать темы
Вы не можете отвечать на сообщения
Вы не можете редактировать свои сообщения
Вы не можете удалять свои сообщения
Вы не можете голосовать в опросах
Вы не можете прикреплять файлы к сообщениям
Вы не можете скачивать файлы