Агент Ева / Ava (2020) BDRip 1080p | 60 fps Пятый элемент / The Fifth Element (1997) BDRip 1080p | 60 fps Властелин колец: Трилогия / The Lord of the Rings: Trilogy (2001-2003) BDRip-AVC | Extended Cut | 60 fps Форпост / The Outpost (2020) BDRip 1080p | 60 fps Поезд смерти / D-Railed (2018) BDRip 1080p | 60 fps Охота / The Hunt (2020) BDRip 1080p | 60 fps Вивариум / Vivarium (2019) BDRip 720p | 60 fps Ультрафиолет / Ultraviolet (2006) BDRip 1080p | 60 fps
  1. Longevity:
    6 years 4 months
    Posts:
    2414
    Gender:
    Male
    «They're gonna kick your ass and get away with it»- Информация
    Название: Война против всех
    Оригинальное название: War on Everyone
    Год выхода: 2016
    Жанр: Комедия, Криминал
    Режиссер: Джон Майкл МакДона
    Сценарий: Джон Майкл МакДона
    Продюсер: Крис Кларк, Флора Фернандес-Маренго, Фил Хант
    В ролях: Александр Скарсгард, Майкл Пенья, Тесса Томпсон, Тео Джеймс, Стефани Сигман, Малкольм Баррет, Тейт Флетчер, Калеб Лэндри Джонс, Пол Райзер, Кит Джардин
    --Сюжет:
    Двое коррумпированных копов-отморозков из Нью-Мексико прессуют всех, кто попадается им под руку… или под колеса авто. Судьба подкидывает им шанс срубить целый миллион долларов, но на смачный куш также претендует эксцентричный английский лорд не без странных пристрастий. В борьбе за заслуженный улов напарники случайно узнают о стрёмных секретах красавчика-лорда и впрягаются нести возмездие. Плохим копам не терпится попробовать нечто совсем новое — борьбу за справедливость… ну, за то, как они понимают справедливость.- Страна: Великобритания
    Продолжительность: 01:37:54

    Файл
    Кодек: MPEG4/ISO/AVC/H.264
    Формат: MKV
    Качество: BDRip 720p | 60 fps
    Видео: 1280 x 536 (2.388) | 60.000 fps | 8.0 Мбит/сек
    Аудио 1: AC3 | 5.1 | 48 kHz | 384 kbps | 16 bit | Дубляж - iTunes |
    Аудио 2: AC3 | 5.1 | 48 kHz | 384 kbps | 16 bit | ENG |
    Субтитры: Русские (форс, полные), Английские (полные,SDH)

    MedifInfo

    Видео
    Идентификатор : 1
    Формат : AVC
    Формат/Информация : Advanced Video Codec
    Профиль формата : [email protected]
    Параметр CABAC формата : Да
    Параметр ReFrames формата : 5 кадров
    Идентификатор кодека : V_MPEG4/ISO/AVC
    Продолжительность : 1 ч. 37 м.
    Битрейт : 7999 Кбит/сек
    Ширина : 1280 пикселей
    Высота : 536 пикселей
    Соотношение сторон : 2,40:1
    Режим частоты кадров : Постоянный
    Частота кадров : 60,000 кадров/сек
    Цветовое пространство : YUV
    Субдискретизация насыщенности : 4:2:0
    Битовая глубина : 8 бит
    Тип развёртки : Прогрессивная
    Бит/(Пиксели*Кадры) : 0.194
    Размер потока : 5,35 Гбайт (89%)
    Заголовок : www.60-fps.org
    Библиотека кодирования : x264 core 148 r2638 7599210
    Настройки программы : cabac=1 / ref=5 / deblock=1:-3:-3 / analyse=0x3:0x113 / me=umh / subme=8 / psy=1 / psy_rd=1.00:0.25 / mixed_ref=1 / me_range=32 / chroma_me=1 / trellis=1 / 8x8dct=1 / cqm=0 / deadzone=6,6 / fast_pskip=1 / chroma_qp_offset=-4 / threads=12 / lookahead_threads=2 / sliced_threads=0 / nr=0 / decimate=0 / interlaced=0 / bluray_compat=0 / constrained_intra=0 / bframes=3 / b_pyramid=2 / b_adapt=2 / b_bias=0 / direct=3 / weightb=1 / open_gop=0 / weightp=2 / keyint=600 / keyint_min=59 / scenecut=40 / intra_refresh=0 / rc_lookahead=50 / rc=2pass / mbtree=1 / bitrate=7999 / ratetol=1.0 / qcomp=0.80 / qpmin=0 / qpmax=69 / qpstep=4 / cplxblur=20.0 / qblur=0.5 / vbv_maxrate=62500 / vbv_bufsize=78125 / nal_hrd=none / filler=0 / ip_ratio=1.10 / aq=1:0.50
    Default : Да
    Forced : Нет
    Аудио #1
    Идентификатор : 2
    Формат : AC-3
    Формат/Информация : Audio Coding 3
    Расширение режима : CM (complete main)
    Параметр Endianness формата : Big
    Идентификатор кодека : A_AC3
    Продолжительность : 1 ч. 37 м.
    Вид битрейта : Постоянный
    Битрейт : 384 Кбит/сек
    Каналы : 6 каналов
    Расположение каналов : Front: L C R, Side: L R, LFE
    Частота : 48,0 КГц
    Битовая глубина : 16 бит
    Метод сжатия : С потерями
    Размер потока : 269 Мбайт (4%)
    Заголовок : Дубляж - iTunes
    Язык : Russian
    Default : Да
    Forced : Нет
    Аудио #2
    Идентификатор : 3
    Формат : AC-3
    Формат/Информация : Audio Coding 3
    Расширение режима : CM (complete main)
    Параметр Endianness формата : Big
    Идентификатор кодека : A_AC3
    Продолжительность : 1 ч. 37 м.
    Вид битрейта : Постоянный
    Битрейт : 384 Кбит/сек
    Каналы : 6 каналов
    Расположение каналов : Front: L C R, Side: L R, LFE
    Частота : 48,0 КГц
    Битовая глубина : 16 бит
    Метод сжатия : С потерями
    Размер потока : 269 Мбайт (4%)
    Заголовок : Eng
    Язык : English
    Default : Нет
    Forced : Нет
    Текст #1
    Идентификатор : 4
    Формат : UTF-8
    Идентификатор кодека : S_TEXT/UTF8
    Идентификатор кодека/Информация : UTF-8 Plain Text
    Заголовок : Forced
    Язык : Russian
    Default : Да
    Forced : Нет
    Текст #2
    Идентификатор : 5
    Формат : UTF-8
    Идентификатор кодека : S_TEXT/UTF8
    Идентификатор кодека/Информация : UTF-8 Plain Text
    Заголовок : Full
    Язык : Russian
    Default : Нет
    Forced : Нет
    Текст #3
    Идентификатор : 6
    Формат : UTF-8
    Идентификатор кодека : S_TEXT/UTF8
    Идентификатор кодека/Информация : UTF-8 Plain Text
    Заголовок : Full
    Язык : English
    Default : Нет
    Forced : Нет
    Текст #4
    Идентификатор : 7
    Формат : UTF-8
    Идентификатор кодека : S_TEXT/UTF8
    Идентификатор кодека/Информация : UTF-8 Plain Text
    Заголовок : SDH
    Язык : English
    Default : Нет
    Forced : Нет
    Меню
    00:00:00.000 : en:Chapter 01
    00:09:14.875 : en:Chapter 02
    00:16:29.708 : en:Chapter 03
    00:29:19.791 : en:Chapter 04
    00:38:06.000 : en:Chapter 05
    00:46:43.625 : en:Chapter 06
    00:55:52.833 : en:Chapter 07
    01:03:25.083 : en:Chapter 08
    01:12:57.458 : en:Chapter 09
    01:19:10.166 : en:Chapter 10
    01:25:15.166 : en:Chapter 11
    01:31:57.250 : en:Chapter 12

    Release was prepared by 60-fps.org

  2. Longevity:
    4 years 3 months
    Posts:
    1
    Gender:
    Male
    Уважаемый раздающий, у вас совсем плохо с интернетом? Я давно не видел ни у кого такой скорости раздачи! 13-100кб/с. Осталось 2 дня и 22 часа! Удивляюсь
    Понимаю, что качаю на халяву, но все же не понимаю, как так можно раздавать?
    21-Feb-2017 18:45 (after 20 days)
  3. Longevity:
    6 years 4 months
    Posts:
    2414
    Gender:
    Male
    7428Уважаемый раздающий, у вас совсем плохо с интернетом? Я давно не видел ни у кого такой скорости раздачи! 13-100кб/с. Осталось 2 дня и 22 часа! Удивляюсь
    Понимаю, что качаю на халяву, но все же не понимаю, как так можно раздавать?
    С инетом у меня все ок ))
    Проблема с количеством раздач (посмотреть можно у меня в профиле),
    если я ограничивать не буду , то у меня оперативка через 10 минут упадет , и вообще все раздачи станут ..
    21-Feb-2017 18:50 (after 4 minutes)
  4. Longevity:
    4 years 4 months
    Posts:
    110
    Gender:
    Male
    М-да... Комедией ЭТО назвать сложно...
    25-Feb-2017 18:00 (after 3 days)
  5. Longevity:
    3 years 7 months
    Posts:
    1
    Gender:
    Unknown
    вообще к любому из названных жанров этот фильм тяжело причислить, но мне понравился :)
    09-Jul-2017 12:14 (after 4 months 11 days)


You cannot post new topics in this forum
You cannot reply to topics in this forum
You cannot edit your posts in this forum
You cannot delete your posts in this forum
You cannot vote in polls in this forum
You cannot attach files in this forum
You cannot download files in this forum