[Цитировать]
mimok

Война Богов: Бессмертные / Immortals (2011) BDRip 720p | 60fps«Богам нужен герой»- Информация о фильме
Название: Война Богов: Бессмертные
Оригинальное название: Immortals
Год выхода: 2011
Жанр: Фэнтези, боевик, драма
Режиссер: Тарсем Сингх
Продюсер: Марк Кантон, Райан Кэвэна, Джанни Нуннари
В ролях: Генри Кавилл, Стивен Дорфф, Люк Эванс, Изабель Лукас, Келлан Латс, Фрида Пинто, Микки Рурк, Стивен МакХэтти, Марк Марголис, Джон Хёрт
Описание фильма:
Одержимый жаждой власти царь Гиперион хочет уничтожить род людской и низвергнуть богов. С помощью Эпирского Лука, сделанного руками бога войны Ареса, он освобождает Титанов от тысячелетнего заточения в горах Тартара. Боги бессильны противостоять безумному царю. Единственная надежда на спасение — герой Тесей, который вступает в неравную войну с Титанами. Боги Олимпа во главе с самим Зевсом, пророчица Федра и хитрый раб Ставрос помогают герою в смертельной битве с демонами. Тесей должен победить, или боги Олимпа будут низвержены, а Эллада обречена на погибель…
Страна: США
Студия: Relativity Media, Hollywood Gang Productions
Продолжительность: 01:50:29
Перевод: Дублированный (Лицензия)
Субтитры: Вшитые, отключаемые
Язык субтитров: Русский (Full), Английский (Full)

Дата мировой премьеры: 10 ноября 2011
Дата российской премьеры: 10 ноября 2011, «Парадиз», «Наше Кино»
Дата выхода DVD релиза: 19 января 2012, «CP-Digital»
Дата выхода Blu-Ray релиза: 19 января 2012, «CP-Digital»
Файл
Формат: MKV
Кодек: MPEG-4 AVC/H.264
Качество: BDRip 720p
Видео: ~ 7975 Кбит/сек, 1280 x 720, 59.940 кадров/сек
Аудио: AC3 5.1, 48.0 KHz, 640 Кбит/сек - Русский

MediaInfo

Общее
Уникальный идентификатор : 196593580834383310809151163305940934478 (0x93E68BE233D2593C9DCDE4A41172DF4E)
Полное имя : D:\Торренты\Immortals 60fps.mkv
Формат : Matroska
Версия формата : Version 2
Размер файла : 6,78 Гбайт
Продолжительность : 1 ч. 50 м.
Общий поток : 8790 Кбит/сек
Название фильма : Immortals (2011) Blu-ray 3D
Дата кодирования : UTC 2015-03-22 05:19:39
Программа кодирования : mkvmerge v6.9.1 ('Blue Panther') 64bit built on Apr 18 2014 18:23:38
Библиотека кодирования : libebml v1.3.0 + libmatroska v1.4.1
Видео
Идентификатор : 1
Формат : AVC
Формат/Информация : Advanced Video Codec
Профиль формата : High@L4.1
Параметр CABAC формата : Да
Параметр ReFrames формата : 6 кадров
Идентификатор кодека : V_MPEG4/ISO/AVC
Продолжительность : 1 ч. 50 м.
Битрейт : 7975 Кбит/сек
Ширина : 1280 пикселей
Высота : 720 пикселей
Соотношение сторон : 16:9
Режим частоты кадров : Постоянный
Частота кадров : 59,880 кадров/сек
Частота кадров в оригинале : 59,940 кадров/сек
Цветовое пространство : YUV
Субдискретизация насыщенности : 4:2:0
Битовая глубина : 8 бит
Тип развёртки : Прогрессивная
Бит/(Пиксели*Кадры) : 0.145
Размер потока : 6,15 Гбайт (91%)
Заголовок : Release by mimok
Библиотека кодирования : x264 core 130 r2273 b3065e6
Настройки программы : cabac=1 / ref=6 / deblock=1:0:0 / analyse=0x3:0x133 / me=umh / subme=8 / psy=1 / psy_rd=1.00:0.15 / mixed_ref=1 / me_range=20 / chroma_me=1 / trellis=2 / 8x8dct=1 / cqm=0 / deadzone=21,11 / fast_pskip=0 / chroma_qp_offset=-3 / threads=6 / lookahead_threads=2 / sliced_threads=0 / nr=0 / decimate=0 / interlaced=0 / bluray_compat=0 / constrained_intra=0 / bframes=8 / b_pyramid=2 / b_adapt=2 / b_bias=0 / direct=1 / weightb=1 / open_gop=0 / weightp=2 / keyint=250 / keyint_min=25 / scenecut=40 / intra_refresh=0 / rc=crf / mbtree=0 / crf=19.0 / qcomp=0.63 / qpmin=10 / qpmax=51 / qpstep=4 / ip_ratio=1.40 / pb_ratio=1.30 / aq=1:1.20
Default : Да
Forced : Нет
Аудио
Идентификатор : 2
Формат : AC-3
Формат/Информация : Audio Coding 3
Расширение режима : CM (complete main)
Параметр Endianness формата : Big
Идентификатор кодека : A_AC3
Продолжительность : 1 ч. 50 м.
Вид битрейта : Постоянный
Битрейт : 640 Кбит/сек
Каналы : 6 каналов
Расположение каналов : Front: L C R, Side: L R, LFE
Частота : 48,0 КГц
Битовая глубина : 16 бит
Метод сжатия : С потерями
Размер потока : 506 Мбайт (7%)
Заголовок : Dub
Язык : Russian
Default : Да
Forced : Нет
Текст #1
Идентификатор : 3
Формат : UTF-8
Идентификатор кодека : S_TEXT/UTF8
Идентификатор кодека/Информация : UTF-8 Plain Text
Заголовок : Full
Язык : Russian
Default : Да
Forced : Нет
Текст #2
Идентификатор : 4
Формат : UTF-8
Идентификатор кодека : S_TEXT/UTF8
Идентификатор кодека/Информация : UTF-8 Plain Text
Заголовок : Full
Язык : English
Default : Нет
Forced : Нет

Скринлист

Скриншоты:

Релиз подготовлен 60 - fps

 
Показать сообщения:    

Текущее время: 02-Дек 21:08

Часовой пояс: UTC + 3


Вы не можете начинать темы
Вы не можете отвечать на сообщения
Вы не можете редактировать свои сообщения
Вы не можете удалять свои сообщения
Вы не можете голосовать в опросах
Вы не можете прикреплять файлы к сообщениям
Вы не можете скачивать файлы