[Цитировать]
Kryl

Фильм «Witness the manhunt that changed the course of human history» Фильм- Информация
Название: Восставший
Оригинальное название: Risen
Год выхода: 2016
Жанр: Боевик, драма, детектив, приключения
Режиссер: Кевин Рейнольдс
Сценарий: Paul Aiello, Кевин Рейнольдс
Продюсер: Патрик Айелло, Мики Лиделл, Пит Шилеймон
В ролях: Джозеф Файнс, Том Фелтон, Питер Фёрт, Клифф Кёртис, Мария Ботто, Луис Кальехо, Антонио Хиль-Мартинес, Ричард Этуилл, Марк Киллин, Стюарт Скудамор
--Сюжет:
33 год н. э. Римскому трибуну в Иудее дано задание найти пропавшее тело распятого накануне еврея, который, судя по слухам, воскрес.- Страна: США
Продолжительность: 01:47:38

Файл
Кодек: MPEG4/ISO/AVC H.264
Формат: MKV
Качество: BDRip 720p | 60 fps
Видео: 1280 x 534 (2.397) | 59.940 fps | 8.0 Мбит/сек
Аудио 1: AC3 | 5.1 | 48 kHz | 384 kbps | 16 bit | Профессиональный многоголосый (закадровый) - iTunes |
Аудио 2: AC3 | 5.1 | 48 kHz | 448 kbps | 16 bit | Любительский многоголосый (закадровый) Paradox & Omskbird records |
Аудио 3: AC3 | 5.1 | 48 kHz | 448 kbps | 16 bit | Eng |
Субтитры: Ru, Eng

MedifInfo

Видео
Идентификатор : 1
Формат : AVC
Формат/Информация : Advanced Video Codec
Профиль формата : High@L4.1
Параметр CABAC формата : Да
Параметр ReFrames формата : 3 кадра
Параметр GOP формата : M=3, N=72
Идентификатор кодека : V_MPEG4/ISO/AVC
Продолжительность : 1 ч. 47 м.
Вид битрейта : Переменный
Битрейт : 7637 Кбит/сек
Максимальный битрейт : 8000 Кбит/сек
Ширина : 1280 пикселей
Высота : 534 пикселя
Соотношение сторон : 2,40:1
Режим частоты кадров : Постоянный
Частота кадров : 59,880 кадров/сек
Частота кадров в оригинале : 59,940 кадров/сек
Стандарт вещания : PAL
Цветовое пространство : YUV
Субдискретизация насыщенности : 4:2:0
Битовая глубина : 8 бит
Тип развёртки : Прогрессивная
Бит/(Пиксели*Кадры) : 0.187
Размер потока : 5,74 Гбайт (84%)
Заголовок : www.60-fps.org
Язык : English
Default : Да
Forced : Нет
Основные цвета : BT.601 NTSC
Характеристики трансфера : BT.601
Коэффициенты матрицы : BT.601
colour_range : Limited
Аудио #1
Идентификатор : 2
Формат : AC-3
Формат/Информация : Audio Coding 3
Расширение режима : CM (complete main)
Параметр Endianness формата : Big
Идентификатор кодека : A_AC3
Продолжительность : 1 ч. 47 м.
Вид битрейта : Постоянный
Битрейт : 384 Кбит/сек
Каналы : 6 каналов
Расположение каналов : Front: L C R, Side: L R, LFE
Частота : 48,0 КГц
Битовая глубина : 16 бит
Метод сжатия : С потерями
Размер потока : 296 Мбайт (4%)
Заголовок : MVO [iTunes]
Язык : Russian
Default : Да
Forced : Нет
DURATION : 01:47:38.304000000
NUMBER_OF_FRAMES : 201822
NUMBER_OF_BYTES : 361665024
_STATISTICS_WRITING_APP : mkvmerge v7.6.0 ('Garden of Dreams') 32bit built on Feb 8 2015 12:51:39
_STATISTICS_WRITING_DATE_UTC : 2016-07-06 19:44:33
_STATISTICS_TAGS : BPS DURATION NUMBER_OF_FRAMES NUMBER_OF_BYTES
Аудио #2
Идентификатор : 3
Формат : AC-3
Формат/Информация : Audio Coding 3
Расширение режима : CM (complete main)
Параметр Endianness формата : Big
Идентификатор кодека : A_AC3
Продолжительность : 1 ч. 47 м.
Вид битрейта : Постоянный
Битрейт : 448 Кбит/сек
Каналы : 6 каналов
Расположение каналов : Front: L C R, Side: L R, LFE
Частота : 48,0 КГц
Битовая глубина : 16 бит
Метод сжатия : С потерями
Размер потока : 345 Мбайт (5%)
Заголовок : MVO
Язык : Russian
Default : Нет
Forced : Нет
Аудио #3
Идентификатор : 4
Формат : AC-3
Формат/Информация : Audio Coding 3
Расширение режима : CM (complete main)
Параметр Endianness формата : Big
Идентификатор кодека : A_AC3
Продолжительность : 1 ч. 47 м.
Вид битрейта : Постоянный
Битрейт : 448 Кбит/сек
Каналы : 6 каналов
Расположение каналов : Front: L C R, Side: L R, LFE
Частота : 48,0 КГц
Битовая глубина : 16 бит
Метод сжатия : С потерями
Размер потока : 345 Мбайт (5%)
Заголовок : Original
Язык : English
Default : Нет
Forced : Нет
Текст #1
Идентификатор : 5
Формат : UTF-8
Идентификатор кодека : S_TEXT/UTF8
Идентификатор кодека/Информация : UTF-8 Plain Text
Язык : Russian
Default : Нет
Forced : Нет
Текст #2
Идентификатор : 6
Формат : UTF-8
Идентификатор кодека : S_TEXT/UTF8
Идентификатор кодека/Информация : UTF-8 Plain Text
Язык : English
Default : Нет
Forced : Нет
Текст #3
Идентификатор : 7
Формат : UTF-8
Идентификатор кодека : S_TEXT/UTF8
Идентификатор кодека/Информация : UTF-8 Plain Text
Заголовок : SDH
Язык : English
Default : Нет
Forced : Нет
Меню
00:00:00.000 : en:00:00:00
00:06:50.243 : en:00:06:50
00:14:18.733 : en:00:14:18
00:21:48.182 : en:00:21:48
00:27:35.195 : en:00:27:35
00:33:21.082 : en:00:33:21
00:40:03.985 : en:00:40:03
00:46:19.193 : en:00:46:19
00:54:06.243 : en:00:54:06
01:00:06.478 : en:01:00:06
01:07:53.027 : en:01:07:53
01:13:54.847 : en:01:13:54
01:19:46.657 : en:01:19:46
01:25:42.387 : en:01:25:42
01:33:16.132 : en:01:33:16
01:38:41.833 : en:01:38:41

Релиз подготовлен 60 - fps



Последний раз редактировалось: Kryl (2016-09-26 22:24), всего редактировалось 2 раз(а)

Топик был перенесен из форума Новинки КиноПроката 60 FPS в форум Зарубежные фильмы 60 FPS
Kryl
 
Показать сообщения:    

Текущее время: 10-Дек 19:38

Часовой пояс: UTC + 3


Вы не можете начинать темы
Вы не можете отвечать на сообщения
Вы не можете редактировать свои сообщения
Вы не можете удалять свои сообщения
Вы не можете голосовать в опросах
Вы не можете прикреплять файлы к сообщениям
Вы не можете скачивать файлы