[Цитировать]
Kryl

Восставший из ада

-Название: Восставший из ада
Оригинальное название: Hellraiser
Год выпуска: 1987
Страна: Великобритания
Жанр: ужасы
Продолжительность: 01:33:22
Перевод: Профессиональный (многоголосый)
Субтитры: русские (Полные), английские (Полные)-Режиссер: Клайв Баркер-В ролях: Эндрю Робинсон (Larry), Клэр Хиггинс (Julia), Эшли Лоуренс (Kirsty Cotton), Шон Чэпман (Frank), Оливер Смит (Frank the Monster), Роберт Хайнс (Steve), Энтони Аллен (1st Victim), Леон Дэвис (2nd Victim), Майкл Кэссиди (3rd Victim), Фрэнк Бэйкер (Derelict), Кеннет Нельсон (Bill), Гэй Бэйнес (Evelyn)-Описание:
Расставив вокруг себя зажженные свечи, Френк открывает купленную им на восточном базаре старинную шкатулку. Легенда гласит, что живущие в ней демоны могут доставить владельцу неописуемые наслаждения. Но Френк не мог и предположить, что эта шкатулка ключ к воротам из ада...-Рейтинг:

MPAA: R - Лицам до 17 лет обязательно присутствие взрослого-Качество: BDRip-AVC 60fps
Формат: MKV
Видео: AVC, 1024x552 (1.855), 5000 kbps, 59,940 fps, 0,148 bpp
Аудио: русский / AC3 / 5.1 / 48 kHz / 640 kbps / 16 bit
Навигация по главам: есть- -

ОтчетМедиаИнфо

General
Unique ID : 240656180687121027475349864435538750346 (0xB50CB1C8B3B4E14C86EFFC287A406B8A)
Format : Matroska
Format version : Version 4 / Version 2
File size : 3.68 GiB
Duration : 1h 33mn
Overall bit rate : 5 643 Kbps
Movie name : Tiberiumsun69
Encoded date : UTC 2015-10-31 03:08:37
Writing application : mkvmerge v8.3.0 ('Over the Horizon') 64bit
Writing library : libebml v1.3.1 + libmatroska v1.4.2
Attachment : Yes / Yes
Video
ID : 1
Format : AVC
Format/Info : Advanced Video Codec
Format profile : High@L4.1
Format settings, CABAC : Yes
Format settings, ReFrames : 4 frames
Codec ID : V_MPEG4/ISO/AVC
Duration : 1h 33mn
Bit rate : 5 000 Kbps
Width : 1 024 pixels
Height : 552 pixels
Display aspect ratio : 1.855
Frame rate : 59.940 fps
Color space : YUV
Chroma subsampling : 4:2:0
Bit depth : 8 bits
Scan type : Progressive
Bits/(Pixel*Frame) : 0.148
Stream size : 3.19 GiB (87%)
Title : Tiberiumsun69
Writing library : x264 core 146 r2538 121396c
Encoding settings : cabac=1 / ref=3 / deblock=1:0:0 / analyse=0x3:0x113 / me=umh / subme=9 / psy=1 / psy_rd=1.00:0.10 / mixed_ref=1 / me_range=32 / chroma_me=1 / trellis=2 / 8x8dct=1 / cqm=0 / deadzone=21,11 / fast_pskip=0 / chroma_qp_offset=-3 / threads=12 / lookahead_threads=3 / sliced_threads=0 / nr=0 / decimate=1 / interlaced=0 / bluray_compat=0 / constrained_intra=0 / bframes=16 / b_pyramid=2 / b_adapt=2 / b_bias=0 / direct=3 / weightb=1 / open_gop=0 / weightp=2 / keyint=600 / keyint_min=59 / scenecut=40 / intra_refresh=0 / rc_lookahead=40 / rc=2pass / mbtree=0 / bitrate=5000 / ratetol=1.0 / qcomp=0.60 / qpmin=0 / qpmax=69 / qpstep=4 / cplxblur=20.0 / qblur=0.5 / vbv_maxrate=14000 / vbv_bufsize=14000 / nal_hrd=none / filler=0 / ip_ratio=1.40 / pb_ratio=1.30 / aq=1:1.00
Language : English
Default : Yes
Forced : No
Audio
ID : 2
Format : AC-3
Format/Info : Audio Coding 3
Mode extension : CM (complete main)
Codec ID : A_AC3
Duration : 1h 33mn
Bit rate mode : Constant
Bit rate : 640 Kbps
Channel(s) : 6 channels
Channel positions : Front: L C R, Side: L R, LFE
Sampling rate : 48.0 KHz
Bit depth : 16 bits
Compression mode : Lossy
Stream size : 427 MiB (11%)
Title : Многоголосый, закадровый
Language : Russian
Default : Yes
Forced : No
Text #1
ID : 3
Format : UTF-8
Codec ID : S_TEXT/UTF8
Codec ID/Info : UTF-8 Plain Text
Title : Полные
Language : Russian
Default : No
Forced : No
Text #2
ID : 4
Format : UTF-8
Codec ID : S_TEXT/UTF8
Codec ID/Info : UTF-8 Plain Text
Title : Полные
Language : English
Default : No
Forced : No
Menu
00:00:00.000 : :Chapter 1
00:05:31.812 : :Chapter 2
00:12:10.919 : :Chapter 3
00:16:23.880 : :Chapter 4
00:22:44.969 : :Chapter 5
00:24:54.390 : :Chapter 6
00:28:51.335 : :Chapter 7
00:33:28.195 : :Chapter 8
00:40:56.226 : :Chapter 9
00:46:36.733 : :Chapter 10
00:50:12.198 : :Chapter 11
00:53:15.840 : :Chapter 12
00:59:38.096 : :Chapter 13
01:05:29.406 : :Chapter 14
01:10:42.135 : :Chapter 15
01:14:12.470 : :Chapter 16
01:16:57.218 : :Chapter 17
01:20:29.597 : :Chapter 18
01:23:04.001 : :Chapter 19
01:27:21.049 : :Chapter 20

Скриншоты

Восставший из ада 2

-Название: Восставший из ада 2
Оригинальное название: Hellbound: Hellraiser II
Год выпуска: 1988
Страна: Великобритания, США
Жанр: ужасы, триллер
Продолжительность: 01:39:03
Перевод: Профессиональный (многоголосый)
Субтитры: русские (Полные), английские (Полные)-Режиссер: Тони Рэндел-В ролях: Клэр Хиггинс (Julia Cotton), Эшли Лоуренс (Kirsty Cotton), Кеннет Крэнэм (Dr. Philip Channard / Channard Cenobite), Имоджен Бурман (Tiffany), Шон Чэпман (Uncle Frank Cotton), Уильям Хоуп (Kyle MacRae), Даг Брэдли (Pinhead / Captain Elliot Spencer), Барби Уайлд (Female Cenobite), Саймон Бэмфорд (Butterball Cenobite), Николас Винс (Chatterer Cenobite / Chatter II Cenobite), Оливер Смит (Skinless Frank), Энгус МакИннес (Homicide Detective Ronson)-Описание:
В наш мир возвращается мачеха Кристины Джулия, сгинувшая в геенне огненной в финале первой части фильма. Для восстановления своего физического облика ей приходится использовать те же малоприглядные средства, что в свое время и Фрэнку.
В это же время Кристина, содержащаяся в психиатрической лечебнице, решает спасти своего томящегося в потусторонней неволе отца, для чего ей снова необходимо проникнуть за ту не всегда видимую и не всегда прочную грань, которая отделяет мир живых от мира не очень живых...-Рейтинг:

MPAA: R - Лицам до 17 лет обязательно присутствие взрослого-Качество: BDRip-AVC 60fps
Формат: MKV
Видео: AVC, 1024x552 (1.855), 5000 kbps, 59,940 fps, 0,148 bpp
Аудио: русский / AC3 / 5.1 / 48 kHz / 384 kbps / 16 bit |West Video|
Навигация по главам: есть- -

ОтчетМедиаИнфо

General
Unique ID : 252231490521489444267552932358173825707 (0xBDC2049F0228D517B8E7E39BBD911AAB)
Format : Matroska
Format version : Version 4 / Version 2
File size : 3.72 GiB
Duration : 1h 39mn
Overall bit rate : 5 380 Kbps
Movie name : Tiberiumsun69
Encoded date : UTC 2015-11-08 07:15:16
Writing application : mkvmerge v8.3.0 ('Over the Horizon') 64bit
Writing library : libebml v1.3.1 + libmatroska v1.4.2
Attachment : Yes
Video
ID : 1
Format : AVC
Format/Info : Advanced Video Codec
Format profile : High@L4.1
Format settings, CABAC : Yes
Format settings, ReFrames : 4 frames
Codec ID : V_MPEG4/ISO/AVC
Duration : 1h 39mn
Bit rate : 5 000 Kbps
Width : 1 024 pixels
Height : 552 pixels
Display aspect ratio : 1.855
Frame rate : 59.940 fps
Color space : YUV
Chroma subsampling : 4:2:0
Bit depth : 8 bits
Scan type : Progressive
Bits/(Pixel*Frame) : 0.148
Stream size : 3.38 GiB (91%)
Title : Tiberiumsun69
Writing library : x264 core 146 r2538 121396c
Encoding settings : cabac=1 / ref=3 / deblock=1:0:0 / analyse=0x3:0x113 / me=umh / subme=9 / psy=1 / psy_rd=1.00:0.10 / mixed_ref=1 / me_range=32 / chroma_me=1 / trellis=2 / 8x8dct=1 / cqm=0 / deadzone=21,11 / fast_pskip=0 / chroma_qp_offset=-3 / threads=12 / lookahead_threads=3 / sliced_threads=0 / nr=0 / decimate=1 / interlaced=0 / bluray_compat=0 / constrained_intra=0 / bframes=16 / b_pyramid=2 / b_adapt=2 / b_bias=0 / direct=3 / weightb=1 / open_gop=0 / weightp=2 / keyint=600 / keyint_min=59 / scenecut=40 / intra_refresh=0 / rc_lookahead=40 / rc=2pass / mbtree=0 / bitrate=5000 / ratetol=1.0 / qcomp=0.60 / qpmin=0 / qpmax=69 / qpstep=4 / cplxblur=20.0 / qblur=0.5 / vbv_maxrate=14000 / vbv_bufsize=14000 / nal_hrd=none / filler=0 / ip_ratio=1.40 / pb_ratio=1.30 / aq=1:1.00
Language : English
Default : Yes
Forced : No
Audio
ID : 2
Format : AC-3
Format/Info : Audio Coding 3
Mode extension : CM (complete main)
Codec ID : A_AC3
Duration : 1h 39mn
Bit rate mode : Constant
Bit rate : 384 Kbps
Channel(s) : 6 channels
Channel positions : Front: L C R, Side: L R, LFE
Sampling rate : 48.0 KHz
Bit depth : 16 bits
Compression mode : Lossy
Stream size : 272 MiB (7%)
Title : Многоголосый, закадровый West Video
Language : Russian
Default : Yes
Forced : No
Text #1
ID : 3
Format : UTF-8
Codec ID : S_TEXT/UTF8
Codec ID/Info : UTF-8 Plain Text
Title : Полные
Language : Russian
Default : No
Forced : No
Text #2
ID : 4
Format : UTF-8
Codec ID : S_TEXT/UTF8
Codec ID/Info : UTF-8 Plain Text
Title : Полные
Language : English
Default : No
Forced : No
Menu
00:00:00.000 : en:00:00:00.000
00:03:31.294 : en:00:03:31.294
00:13:42.739 : en:00:13:42.739
00:24:04.193 : en:00:24:04.193
00:34:14.886 : en:00:34:14.886
00:45:09.415 : en:00:45:09.415
00:54:38.233 : en:00:54:38.233
01:05:21.668 : en:01:05:21.668
01:16:02.683 : en:01:16:02.683
01:24:20.055 : en:01:24:20.055
01:36:10.056 : en:01:36:10.056

Скриншоты

Восставший из ада 3: Ад на Земле

-Название: Восставший из ада 3: Ад на Земле
Оригинальное название: Hellraiser III: Hell on Earth
Год выпуска: 1992
Страна: США, Канада
Жанр: ужасы
Продолжительность: 01:33:06
Перевод: Профессиональный (многоголосый)
Субтитры: русские (Полные), английские (Полные)-Режиссер: Энтони Хикокс-В ролях: Кевин Бернхардт (J.P. Monroe), Лоуренс Морторфф (Bum), Терри Фаррелл (Joanne «Joey» Summerskill), Кен Карпентер (Daniel «Doc» Fisher / Camerahead Cenobite), Шэрон Хилл (Blond Nurse), Пола Маршалл (Terri), Роберт С. Тревилер (Paramedic 1), Кристофер Фредерик (Paramedic 2), Лоуренс Каппин (Derelict), Шэрон Персивал (Brittany Virtue), Филип Хайланд (Brad), Дэвид Янг (Bill the Bouncer)-Описание:
Недремлющее Зло вновь вырывается из своего потустороннего плена и начинает настоящую бойню. И, как это частенько водится, на всей планете есть только один человек, который в состоянии противостоять темной адской воле этого исчадия - милая и очаровательная тележурналистка Джоуи.-Рейтинг:

MPAA: R - Лицам до 17 лет обязательно присутствие взрослого-Качество: BDRip-AVC 60fps
Формат: MKV
Видео: AVC, 1024x576 (16:9), 5300 kbps, 59,940 fps, 0,150 bpp
Аудио: русский / AC3 / 5.1 / 48 kHz / 384 kbps / 16 bit |R5|
Навигация по главам: есть- -

ОтчетМедиаИнфо

General
Unique ID : 255191821966676550806312336976282296218 (0xBFFC283AE7F6B15EA58E9C865E1E9F9A)
Format : Matroska
Format version : Version 4 / Version 2
File size : 3.69 GiB
Duration : 1h 33mn
Overall bit rate : 5 676 Kbps
Movie name : Tiberiumsun69
Encoded date : UTC 2015-10-26 09:16:12
Writing application : mkvmerge v8.3.0 ('Over the Horizon') 64bit
Writing library : libebml v1.3.1 + libmatroska v1.4.2
Attachment : Yes
Video
ID : 1
Format : AVC
Format/Info : Advanced Video Codec
Format profile : High@L4.1
Format settings, CABAC : Yes
Format settings, ReFrames : 4 frames
Codec ID : V_MPEG4/ISO/AVC
Duration : 1h 33mn
Bit rate : 5 300 Kbps
Width : 1 024 pixels
Height : 576 pixels
Display aspect ratio : 16:9
Frame rate : 59.940 fps
Color space : YUV
Chroma subsampling : 4:2:0
Bit depth : 8 bits
Scan type : Progressive
Bits/(Pixel*Frame) : 0.150
Stream size : 3.37 GiB (91%)
Title : Tiberiumsun69
Writing library : x264 core 146 r2538 121396c
Encoding settings : cabac=1 / ref=3 / deblock=1:0:0 / analyse=0x3:0x113 / me=umh / subme=9 / psy=1 / psy_rd=1.00:0.10 / mixed_ref=1 / me_range=32 / chroma_me=1 / trellis=2 / 8x8dct=1 / cqm=0 / deadzone=21,11 / fast_pskip=0 / chroma_qp_offset=-3 / threads=12 / lookahead_threads=3 / sliced_threads=0 / nr=0 / decimate=1 / interlaced=0 / bluray_compat=0 / constrained_intra=0 / bframes=16 / b_pyramid=2 / b_adapt=2 / b_bias=0 / direct=3 / weightb=1 / open_gop=0 / weightp=2 / keyint=600 / keyint_min=59 / scenecut=40 / intra_refresh=0 / rc_lookahead=40 / rc=2pass / mbtree=0 / bitrate=5300 / ratetol=1.0 / qcomp=0.60 / qpmin=0 / qpmax=69 / qpstep=4 / cplxblur=20.0 / qblur=0.5 / vbv_maxrate=14000 / vbv_bufsize=14000 / nal_hrd=none / filler=0 / ip_ratio=1.40 / pb_ratio=1.30 / aq=1:1.00
Language : English
Default : Yes
Forced : No
Audio
ID : 2
Format : AC-3
Format/Info : Audio Coding 3
Mode extension : CM (complete main)
Codec ID : A_AC3
Duration : 1h 33mn
Bit rate mode : Constant
Bit rate : 384 Kbps
Channel(s) : 6 channels
Channel positions : Front: L C R, Side: L R, LFE
Sampling rate : 48.0 KHz
Bit depth : 16 bits
Compression mode : Lossy
Stream size : 256 MiB (7%)
Title : Многоголосый, закадровый R5
Language : Russian
Default : Yes
Forced : No
Text #1
ID : 3
Format : UTF-8
Codec ID : S_TEXT/UTF8
Codec ID/Info : UTF-8 Plain Text
Title : Полные
Language : Russian
Default : No
Forced : No
Text #2
ID : 4
Format : UTF-8
Codec ID : S_TEXT/UTF8
Codec ID/Info : UTF-8 Plain Text
Title : Полные
Language : English
Default : No
Forced : No
Menu
00:00:00.000 : en:00:00:00.000
00:09:26.085 : en:00:09:26.085
00:20:01.554 : en:00:20:01.554
00:28:15.005 : en:00:28:15.005
00:40:06.549 : en:00:40:06.549
00:49:01.250 : en:00:49:01.250
01:00:45.412 : en:01:00:45.412
01:10:40.756 : en:01:10:40.756
01:20:20.127 : en:01:20:20.127
01:28:30.200 : en:01:28:30.200

Скриншоты

Восставший из ада 4: Кровное родство

-Название: Восставший из ада 4: Кровное родство
Оригинальное название: Hellraiser: Bloodline
Год выпуска: 1996
Страна: США
Жанр: ужасы, фантастика
Продолжительность: 01:24:44
Перевод: Профессиональный (многоголосый)
Субтитры: русские (Полные), английские (Полные)-Режиссер: Кевин Ягер , Алан Смити-В ролях: Брюс Рэмсей (Phillip L'Merchant / John Merchant / Dr. Paul Merchant), Валентина Варгас (Angelique / Peasant Girl), Даг Брэдли (Pinhead), Шарлотта Чаттон (Genevieve L'Merchant), Адам Скотт (Jacques), Ким Майерс (Bobbi Merchant), Мики Коттрелл (Duc de L'Isle), Луи Тюренн (Auguste), Кортленд Мид (Jack Merchant), Луис Мустилльо (Sharpe), Джоди Ст. Майкл (The Beast), Пол Перри (Edwards / Skinless Parker)-Описание:
Жуткие события происходят в 2127-ом году на космической станции Минос, Доктор Мерчант, одержимый какими-то странными, безумными идеями, захватил станцию, чтобы провести в жизнь свои таинственные эксперименты, Доктора «повязали», и он рассказал, как же он дошел до жизни такой, И выяснилось, что причина безумия доктора - в магическом кубике, изготовленном мастером игрушек Ле Маршаном еще несколько столетий назад.-Рейтинг:

MPAA: R - Лицам до 17 лет обязательно присутствие взрослого-Качество: BDRip-AVC 60fps
Формат: MKV
Видео: AVC, 1024x576 (16:9), 5300 kbps, 59,940 fps, 0,150 bpp
Аудио: русский / AC3 / 5.1 / 48 kHz / 384 kbps / 16 bit |West Video|
Навигация по главам: есть- -

ОтчетМедиаИнфо

General
Unique ID : 225830589672703962867833487260341362551 (0xA9E563B65536B5A9BF13A41D2961DF77)
Format : Matroska
Format version : Version 4 / Version 2
File size : 3.36 GiB
Duration : 1h 24mn
Overall bit rate : 5 679 Kbps
Movie name : Tiberiumsun69
Encoded date : UTC 2015-11-08 07:12:10
Writing application : mkvmerge v8.3.0 ('Over the Horizon') 64bit
Writing library : libebml v1.3.1 + libmatroska v1.4.2
Attachment : Yes
Video
ID : 1
Format : AVC
Format/Info : Advanced Video Codec
Format profile : High@L4.1
Format settings, CABAC : Yes
Format settings, ReFrames : 4 frames
Codec ID : V_MPEG4/ISO/AVC
Duration : 1h 24mn
Bit rate : 5 300 Kbps
Width : 1 024 pixels
Height : 576 pixels
Display aspect ratio : 16:9
Frame rate : 59.940 fps
Color space : YUV
Chroma subsampling : 4:2:0
Bit depth : 8 bits
Scan type : Progressive
Bits/(Pixel*Frame) : 0.150
Stream size : 3.07 GiB (91%)
Title : Tiberiumsun69
Writing library : x264 core 146 r2538 121396c
Encoding settings : cabac=1 / ref=3 / deblock=1:0:0 / analyse=0x3:0x113 / me=umh / subme=9 / psy=1 / psy_rd=1.00:0.10 / mixed_ref=1 / me_range=32 / chroma_me=1 / trellis=2 / 8x8dct=1 / cqm=0 / deadzone=21,11 / fast_pskip=0 / chroma_qp_offset=-3 / threads=12 / lookahead_threads=3 / sliced_threads=0 / nr=0 / decimate=1 / interlaced=0 / bluray_compat=0 / constrained_intra=0 / bframes=16 / b_pyramid=2 / b_adapt=2 / b_bias=0 / direct=3 / weightb=1 / open_gop=0 / weightp=2 / keyint=600 / keyint_min=59 / scenecut=40 / intra_refresh=0 / rc_lookahead=40 / rc=2pass / mbtree=0 / bitrate=5300 / ratetol=1.0 / qcomp=0.60 / qpmin=0 / qpmax=69 / qpstep=4 / cplxblur=20.0 / qblur=0.5 / vbv_maxrate=14000 / vbv_bufsize=14000 / nal_hrd=none / filler=0 / ip_ratio=1.40 / pb_ratio=1.30 / aq=1:1.00
Language : English
Default : Yes
Forced : No
Audio
ID : 2
Format : AC-3
Format/Info : Audio Coding 3
Mode extension : CM (complete main)
Codec ID : A_AC3
Duration : 1h 24mn
Bit rate mode : Constant
Bit rate : 384 Kbps
Channel(s) : 6 channels
Channel positions : Front: L C R, Side: L R, LFE
Sampling rate : 48.0 KHz
Bit depth : 16 bits
Compression mode : Lossy
Stream size : 233 MiB (7%)
Title : Многоголосый, закадровый West Video
Language : Russian
Default : Yes
Forced : No
Text #1
ID : 3
Format : UTF-8
Codec ID : S_TEXT/UTF8
Codec ID/Info : UTF-8 Plain Text
Title : Полные
Language : Russian
Default : No
Forced : No
Text #2
ID : 4
Format : UTF-8
Codec ID : S_TEXT/UTF8
Codec ID/Info : UTF-8 Plain Text
Title : Полные
Language : English
Default : No
Forced : No
Menu
00:00:00.000 : en:00:00:00.000
00:05:34.167 : en:00:05:34.167
00:10:17.951 : en:00:10:17.951
00:18:36.657 : en:00:18:36.657
00:24:00.773 : en:00:24:00.773
00:26:31.048 : en:00:26:31.048
00:30:51.266 : en:00:30:51.266
00:37:28.204 : en:00:37:28.204
00:41:56.848 : en:00:41:56.848
00:49:31.218 : en:00:49:31.218
00:53:01.929 : en:00:53:01.929
00:59:31.526 : en:00:59:31.526
01:02:01.676 : en:01:02:01.676
01:08:54.380 : en:01:08:54.380
01:14:17.870 : en:01:14:17.870

Скриншоты

Восставший из ада 5: Преисподняя

-Название: Восставший из ада 5: Преисподняя
Оригинальное название: Hellraiser: Inferno
Год выпуска: 2000
Страна: США
Жанр: ужасы, триллер, криминал, детектив
Продолжительность: 01:40:19
Перевод: Профессиональный (многоголосый)
Субтитры: русские (Полные), английские (Полные)-Режиссер: Скотт Дерриксон-В ролях: Крэйг Шеффер (Det. Joseph Thorne), Николас Туртурро (Det. Tony Nenonen), Джеймс Римар (Dr. Paul Gregory), Даг Брэдли (Pinhead), Николас Сэдлер (Bernie), Ноэль Эванс (Melanie Thorne), Линдсэй Тейлор (Chloe), Мэтт Джордж (Leon Gaultier), Майкл Шамус Уайлз (Mr. Parmagi), Саша Баррези (Daphne Sharp), Кэтрин Джустен (Mother), Джессика Эллиот (Young Joseph's Mother)-Описание:
Созданная в 18-м веке магическая головоломка, способная открыть дорогу в ад, попадает в руки порочного полицейского из Лос-Анджелеса. И с этого момента все вокруг становится кошмаром. Может это возмездие за его неправедную жизнь? Но тогда очень страшное, потому что беспредел, творимый Джозефом, оказывается лишь бледной тенью настоящего адского бесчинства, через которое ему предстоит пройти...-Рейтинг:

MPAA: R - Лицам до 17 лет обязательно присутствие взрослого-Качество: BDRip-AVC 60fps
Формат: MKV
Видео: AVC, 1024x576 (16:9), 5250 kbps, 59,940 fps, 0,148 bpp
Аудио: русский / AC3 / 5.1 / 48 kHz / 384 kbps / 16 bit
Навигация по главам: есть- -

ОтчетМедиаИнфо

General
Unique ID : 176192056583646883458336782049985851932 (0x848D5B13FD3EBDDBBD98947C70EA721C)
Format : Matroska
Format version : Version 4 / Version 2
File size : 3.94 GiB
Duration : 1h 40mn
Overall bit rate : 5 617 Kbps
Movie name : Tiberiumsun69
Encoded date : UTC 2015-11-08 07:18:50
Writing application : mkvmerge v8.3.0 ('Over the Horizon') 64bit
Writing library : libebml v1.3.1 + libmatroska v1.4.2
Attachment : Yes
Video
ID : 1
Format : AVC
Format/Info : Advanced Video Codec
Format profile : High@L4.1
Format settings, CABAC : Yes
Format settings, ReFrames : 4 frames
Codec ID : V_MPEG4/ISO/AVC
Duration : 1h 40mn
Bit rate : 5 250 Kbps
Width : 1 024 pixels
Height : 576 pixels
Display aspect ratio : 16:9
Frame rate : 59.940 fps
Color space : YUV
Chroma subsampling : 4:2:0
Bit depth : 8 bits
Scan type : Progressive
Bits/(Pixel*Frame) : 0.148
Stream size : 3.59 GiB (91%)
Title : Tiberiumsun69
Writing library : x264 core 146 r2538 121396c
Encoding settings : cabac=1 / ref=3 / deblock=1:0:0 / analyse=0x3:0x113 / me=umh / subme=9 / psy=1 / psy_rd=1.00:0.10 / mixed_ref=1 / me_range=32 / chroma_me=1 / trellis=2 / 8x8dct=1 / cqm=0 / deadzone=21,11 / fast_pskip=0 / chroma_qp_offset=-3 / threads=12 / lookahead_threads=3 / sliced_threads=0 / nr=0 / decimate=1 / interlaced=0 / bluray_compat=0 / constrained_intra=0 / bframes=16 / b_pyramid=2 / b_adapt=2 / b_bias=0 / direct=3 / weightb=1 / open_gop=0 / weightp=2 / keyint=600 / keyint_min=59 / scenecut=40 / intra_refresh=0 / rc_lookahead=40 / rc=2pass / mbtree=0 / bitrate=5250 / ratetol=1.0 / qcomp=0.60 / qpmin=0 / qpmax=69 / qpstep=4 / cplxblur=20.0 / qblur=0.5 / vbv_maxrate=14000 / vbv_bufsize=14000 / nal_hrd=none / filler=0 / ip_ratio=1.40 / pb_ratio=1.30 / aq=1:1.00
Language : English
Default : Yes
Forced : No
Audio
ID : 2
Format : AC-3
Format/Info : Audio Coding 3
Mode extension : CM (complete main)
Codec ID : A_AC3
Duration : 1h 40mn
Bit rate mode : Constant
Bit rate : 384 Kbps
Channel(s) : 6 channels
Channel positions : Front: L C R, Side: L R, LFE
Sampling rate : 48.0 KHz
Bit depth : 16 bits
Compression mode : Lossy
Stream size : 276 MiB (7%)
Title : Многоголосый, закадровый
Language : Russian
Default : Yes
Forced : No
Text #1
ID : 3
Format : UTF-8
Codec ID : S_TEXT/UTF8
Codec ID/Info : UTF-8 Plain Text
Title : Полные
Language : Russian
Default : No
Forced : No
Text #2
ID : 4
Format : UTF-8
Codec ID : S_TEXT/UTF8
Codec ID/Info : UTF-8 Plain Text
Title : Полные
Language : English
Default : No
Forced : No
Menu
00:00:00.000 : :Chapter 01
00:11:05.665 : :Chapter 02
00:18:31.318 : :Chapter 03
00:30:24.072 : :Chapter 04
00:42:49.149 : :Chapter 05
00:53:39.466 : :Chapter 06
01:03:00.568 : :Chapter 07
01:12:26.633 : :Chapter 08
01:25:16.903 : :Chapter 09
01:36:32.286 : :Chapter 10

Скриншоты

Восставший из ада 6: Поиски ада

-Название: Восставший из ада 6: Поиски ада
Оригинальное название: Hellraiser: Hellseeker
Год выпуска: 2001
Страна: Канада, США
Жанр: ужасы, триллер, детектив
Продолжительность: 01:28:52
Перевод: Профессиональный (многоголосый)
Субтитры: английские (Полные)-Режиссер: Рик Бота-В ролях: Дин Уинтерс (Trevor), Эшли Лоуренс (Kirsty Cotton Gooden), Даг Брэдли (Pinhead / Merchant), Рэйчел Хейуорд (Allison), Сара-Джейн Редмонд (Gwen), Джоди Томпсон (Tawny), Каарен Де Зилва (Sage), Уильям С. Тейлор (Detective Lange), Майкл Роджерс (Detective Givens), Тревор Уайт (Bret), Кен Камру (Ambrose), Дейл Уилсон (Chief Surgeon)-Описание:
Спустя месяц после автокатастрофы, когда Тревор пришел в себя, выясняется, что тело его жены Кирсти так и не было найдено!
Он возвращается к работе, но с ним начинают происходить ужасные вещи. Тревор оказывается в адском лабиринте, где непостижимым кошмаром сплелись жизнь и смерть. И он должен заплатить цену прежде, чем узнает ответ...-Рейтинг:

MPAA: R - Лицам до 17 лет обязательно присутствие взрослого-Качество: HDRip-AVC 60fps
Формат: MKV
Видео: AVC, 1024x544 (1.882), 5000 kbps, 59,940 fps, 0,150 bpp
Аудио: русский / AC3 / 5.1 / 48 kHz / 448 kbps / 16 bit- -

ОтчетМедиаИнфо

General
Unique ID : 181030224633696489386191051234244944695 (0x8831272E07C9431A83F1B509DB79E337)
Format : Matroska
Format version : Version 4 / Version 2
File size : 3.38 GiB
Duration : 1h 28mn
Overall bit rate : 5 451 Kbps
Movie name : Tiberiumsun69
Encoded date : UTC 2015-11-08 03:37:46
Writing application : mkvmerge v8.3.0 ('Over the Horizon') 64bit
Writing library : libebml v1.3.1 + libmatroska v1.4.2
Attachment : Yes
Video
ID : 1
Format : AVC
Format/Info : Advanced Video Codec
Format profile : High@L4.1
Format settings, CABAC : Yes
Format settings, ReFrames : 4 frames
Codec ID : V_MPEG4/ISO/AVC
Duration : 1h 28mn
Bit rate : 5 000 Kbps
Width : 1 024 pixels
Height : 544 pixels
Display aspect ratio : 1.882
Frame rate : 59.940 fps
Color space : YUV
Chroma subsampling : 4:2:0
Bit depth : 8 bits
Scan type : Progressive
Bits/(Pixel*Frame) : 0.150
Stream size : 3.04 GiB (90%)
Title : Tiberiumsun69
Writing library : x264 core 146 r2538 121396c
Encoding settings : cabac=1 / ref=3 / deblock=1:0:0 / analyse=0x3:0x113 / me=umh / subme=9 / psy=1 / psy_rd=1.00:0.10 / mixed_ref=1 / me_range=32 / chroma_me=1 / trellis=2 / 8x8dct=1 / cqm=0 / deadzone=21,11 / fast_pskip=0 / chroma_qp_offset=-3 / threads=12 / lookahead_threads=3 / sliced_threads=0 / nr=0 / decimate=1 / interlaced=0 / bluray_compat=0 / constrained_intra=0 / bframes=16 / b_pyramid=2 / b_adapt=2 / b_bias=0 / direct=3 / weightb=1 / open_gop=0 / weightp=2 / keyint=600 / keyint_min=59 / scenecut=40 / intra_refresh=0 / rc_lookahead=40 / rc=2pass / mbtree=0 / bitrate=5000 / ratetol=1.0 / qcomp=0.60 / qpmin=0 / qpmax=69 / qpstep=4 / cplxblur=20.0 / qblur=0.5 / vbv_maxrate=14000 / vbv_bufsize=14000 / nal_hrd=none / filler=0 / ip_ratio=1.40 / pb_ratio=1.30 / aq=1:1.00
Language : English
Default : Yes
Forced : No
Audio
ID : 2
Format : AC-3
Format/Info : Audio Coding 3
Mode extension : CM (complete main)
Codec ID : A_AC3
Duration : 1h 28mn
Bit rate mode : Constant
Bit rate : 448 Kbps
Channel(s) : 6 channels
Channel positions : Front: L C R, Side: L R, LFE
Sampling rate : 48.0 KHz
Bit depth : 16 bits
Compression mode : Lossy
Stream size : 285 MiB (8%)
Title : Многоголосый, закадровый
Language : Russian
Default : Yes
Forced : No
Text
ID : 3
Format : UTF-8
Codec ID : S_TEXT/UTF8
Codec ID/Info : UTF-8 Plain Text
Title : Полные
Language : English
Default : No
Forced : No

Скриншоты

Восставший из ада 7: Армия мертвецов

-Название: Восставший из ада 7: Армия мертвецов
Оригинальное название: Hellraiser: Deader
Год выпуска: 2003
Страна: США, Румыния
Жанр: ужасы, триллер, детектив
Продолжительность: 01:28:20
Перевод: Профессиональный (многоголосый)
Субтитры: английские (Полные)-Режиссер: Рик Бота-В ролях: Кари Вурер (Amy Klein), Пол Рис (Winter), Саймон Кунц (Charles Richmond), Марк Уоррен (Joey), Джорджина Райлэнс (Marla), Даг Брэдли (Pinhead), Ионут Черменски (Group Leader), Хью Джорджин (The Arrogant Reporter), Линда Марлоу (Betty), Мадалина Константин (Anna), Иоана Абур (Katia), Константин Барбулеску (The Landlord)-Описание:
Журналистка лондонской газеты Эми Кляйн отправляется в Бухарест, чтобы расследовать там действия тайной секты, члены которой добровольно расстаются с жизнью путем самоубийства. Она с легкостью проникает в мрачный мир секты, но вскоре понимает, что теперь у нее нет другого пути кроме как присоединиться к ее участникам в приготовлениях к пришествию их божества...-Рейтинг:

MPAA: R - Лицам до 17 лет обязательно присутствие взрослого-Качество: HDRip-AVC 60fps
Формат: MKV
Видео: AVC, 1024x576 (16:9), 5300 kbps, 60 fps, 0,150 bpp
Аудио: русский / AC3 / 5.1 / 48 kHz / 384 kbps / 16 bit
Навигация по главам: есть- -

ОтчетМедиаИнфо

General
Unique ID : 173195392637937101344997097060233907153 (0x824C382376AAF381A687C567A6540BD1)
Format : Matroska
Format version : Version 4 / Version 2
File size : 3.51 GiB
Duration : 1h 28mn
Overall bit rate : 5 685 Kbps
Movie name : Tiberiumsun69
Encoded date : UTC 2015-11-08 03:25:01
Writing application : mkvmerge v8.3.0 ('Over the Horizon') 64bit
Writing library : libebml v1.3.1 + libmatroska v1.4.2
Attachment : Yes
Video
ID : 1
Format : AVC
Format/Info : Advanced Video Codec
Format profile : High@L4.1
Format settings, CABAC : Yes
Format settings, ReFrames : 4 frames
Codec ID : V_MPEG4/ISO/AVC
Duration : 1h 28mn
Bit rate : 5 300 Kbps
Width : 1 024 pixels
Height : 576 pixels
Display aspect ratio : 16:9
Frame rate : 60.000 fps
Color space : YUV
Chroma subsampling : 4:2:0
Bit depth : 8 bits
Scan type : Progressive
Bits/(Pixel*Frame) : 0.150
Stream size : 3.20 GiB (91%)
Title : Tiberiumsun69
Writing library : x264 core 146 r2538 121396c
Encoding settings : cabac=1 / ref=3 / deblock=1:0:0 / analyse=0x3:0x113 / me=umh / subme=9 / psy=1 / psy_rd=1.00:0.10 / mixed_ref=1 / me_range=32 / chroma_me=1 / trellis=2 / 8x8dct=1 / cqm=0 / deadzone=21,11 / fast_pskip=0 / chroma_qp_offset=-3 / threads=12 / lookahead_threads=3 / sliced_threads=0 / nr=0 / decimate=1 / interlaced=0 / bluray_compat=0 / constrained_intra=0 / bframes=16 / b_pyramid=2 / b_adapt=2 / b_bias=0 / direct=3 / weightb=1 / open_gop=0 / weightp=2 / keyint=600 / keyint_min=60 / scenecut=40 / intra_refresh=0 / rc_lookahead=40 / rc=2pass / mbtree=0 / bitrate=5300 / ratetol=1.0 / qcomp=0.60 / qpmin=0 / qpmax=69 / qpstep=4 / cplxblur=20.0 / qblur=0.5 / vbv_maxrate=14000 / vbv_bufsize=14000 / nal_hrd=none / filler=0 / ip_ratio=1.40 / pb_ratio=1.30 / aq=1:1.00
Language : English
Default : Yes
Forced : No
Audio
ID : 2
Format : AC-3
Format/Info : Audio Coding 3
Mode extension : CM (complete main)
Codec ID : A_AC3
Duration : 1h 28mn
Bit rate mode : Constant
Bit rate : 384 Kbps
Channel(s) : 6 channels
Channel positions : Front: L C R, Side: L R, LFE
Sampling rate : 48.0 KHz
Bit depth : 16 bits
Compression mode : Lossy
Stream size : 243 MiB (7%)
Title : Многоголосый, закадровый
Language : Russian
Default : Yes
Forced : No
Text
ID : 3
Format : UTF-8
Codec ID : S_TEXT/UTF8
Codec ID/Info : UTF-8 Plain Text
Title : Полные
Language : English
Default : No
Forced : No
Menu
00:00:00.000 : en:00:00:00.000
00:06:25.760 : en:00:06:39.399
00:13:29.266 : en:00:13:42.905
00:23:22.067 : en:00:23:35.706
00:32:14.432 : en:00:32:28.071
00:38:08.661 : en:00:38:22.300
00:47:01.985 : en:00:47:15.624
00:52:27.644 : en:00:52:41.283
00:58:19.496 : en:00:58:33.135
01:04:06.968 : en:01:04:20.607
01:14:45.856 : en:01:14:59.495
01:24:09.753 : en:01:24:23.392

Скриншоты

Восставший из ада 8: Адский мир

-Название: Восставший из ада 8: Адский мир
Оригинальное название: Hellraiser: Hellworld
Год выпуска: 2003
Страна: США, Румыния
Жанр: ужасы, триллер
Продолжительность: 01:34:58
Перевод: Профессиональный (многоголосый)-Режиссер: Рик Бота-В ролях: Лэнс Хенриксен (The Host), Кэтрин Уинник (Chelsea), Кристофер Жако (Jake), Хари Пэйтон (Derrick), Генри Кавилл (Mike), Анна Толпатт (Allison), Виктор МакГуайр (Police Officer #1), Даг Брэдли (Pinhead), Стелиан Уриан (Adam), Магдалена Тун (Derrick's Sexy Dancer), Гаврил Патрв (Rude Guy), Дезири Малонга (Mike's Masked Dancer)-Описание:
Группа подростков, увлечённых онлайн-игрой Hellraiser и достигших в ней определённых успехов, получает от сайта Hellworld.com приглашение на закрытую вечеринку. Попав туда, ребята понимают, что совершили ужасную ошибку, и теперь их любимая игра стала кошмарной реальностью...-Рейтинг:

MPAA: R - Лицам до 17 лет обязательно присутствие взрослого-Качество: HDRip-AVC 60fps
Формат: MKV
Видео: AVC, 1024x576 (16:9), 5200 kbps, 59,940 fps, 0,147 bpp
Аудио: русский / AC3 / 2.0 / 48 kHz / 192 kbps / 16 bit- -

ОтчетМедиаИнфо

General
Unique ID : 216365331629792467304122457590930872389 (0xA2C67275E302B4F19B35B9467C1C1845)
Format : Matroska
Format version : Version 4 / Version 2
File size : 3.58 GiB
Duration : 1h 34mn
Overall bit rate : 5 390 Kbps
Movie name : Tiberiumsun69
Encoded date : UTC 2015-11-08 03:45:16
Writing application : mkvmerge v8.3.0 ('Over the Horizon') 64bit
Writing library : libebml v1.3.1 + libmatroska v1.4.2
Attachment : Yes
Video
ID : 1
Format : AVC
Format/Info : Advanced Video Codec
Format profile : High@L4.1
Format settings, CABAC : Yes
Format settings, ReFrames : 4 frames
Codec ID : V_MPEG4/ISO/AVC
Duration : 1h 34mn
Bit rate : 5 200 Kbps
Width : 1 024 pixels
Height : 576 pixels
Display aspect ratio : 16:9
Frame rate : 59.940 fps
Color space : YUV
Chroma subsampling : 4:2:0
Bit depth : 8 bits
Scan type : Progressive
Bits/(Pixel*Frame) : 0.147
Stream size : 3.38 GiB (94%)
Title : Tiberiumsun69
Writing library : x264 core 146 r2538 121396c
Encoding settings : cabac=1 / ref=3 / deblock=1:0:0 / analyse=0x3:0x113 / me=umh / subme=9 / psy=1 / psy_rd=1.00:0.10 / mixed_ref=1 / me_range=32 / chroma_me=1 / trellis=2 / 8x8dct=1 / cqm=0 / deadzone=21,11 / fast_pskip=0 / chroma_qp_offset=-3 / threads=12 / lookahead_threads=3 / sliced_threads=0 / nr=0 / decimate=1 / interlaced=0 / bluray_compat=0 / constrained_intra=0 / bframes=16 / b_pyramid=2 / b_adapt=2 / b_bias=0 / direct=3 / weightb=1 / open_gop=0 / weightp=2 / keyint=600 / keyint_min=59 / scenecut=40 / intra_refresh=0 / rc_lookahead=40 / rc=2pass / mbtree=0 / bitrate=5200 / ratetol=1.0 / qcomp=0.60 / qpmin=0 / qpmax=69 / qpstep=4 / cplxblur=20.0 / qblur=0.5 / vbv_maxrate=14000 / vbv_bufsize=14000 / nal_hrd=none / filler=0 / ip_ratio=1.40 / pb_ratio=1.30 / aq=1:1.00
Language : English
Default : Yes
Forced : No
Audio
ID : 2
Format : AC-3
Format/Info : Audio Coding 3
Mode extension : CM (complete main)
Codec ID : A_AC3
Duration : 1h 34mn
Bit rate mode : Constant
Bit rate : 192 Kbps
Channel(s) : 2 channels
Channel positions : Front: L R
Sampling rate : 48.0 KHz
Bit depth : 16 bits
Compression mode : Lossy
Stream size : 130 MiB (4%)
Title : Многоголосый, закадровый
Language : Russian
Default : No
Forced : No

Скриншоты

Восставший из ада: Откровения

-Название: Восставший из ада: Откровения
Оригинальное название: Hellraiser: Revelations
Год выпуска: 2010
Страна: США
Жанр: ужасы
Продолжительность: 01:15:07
Перевод: Любительский (одноголосый)
Субтитры: русские (Полные), английские (Полные)-Режиссер: Виктор Гарсия-В ролях: Ник Эверсман (Steven Craven), Стивен Брэнд (Dr. Ross Craven), Фред Татаскьор (Faceless Steven), Трэйси Фэирэуэй (Emma Craven), Дэн Буран (Vagrant), Сэнни Ван Хетерен (Kate Bradley), Джолин Андерсен (Chatterer), Джей Гиллеспи (Pseudo Pinhead), Адель Мари Руис (Anna), Себастьен Робертс (Peter Bradley), Девон Сорвари (Sarah Craven), Стефан Смит Коллинз (Pinhead)-Описание:
Пинхэд возвращается. Двое путешествующих друзей Стив и Нико находят в Мексике коробку-паззл. Нико предлагает Стивену открыть коробку и тот оказывается во власти Пинхэда. Родные Стивена всеми силами будут стараться вернуть его обратно в мир живых. Нико, который, оказывается, другом только прикидывался, на самом деле не так прост и имеет свои интересы на Стива, на коробку и даже на Пинхэда.-Рейтинг:

MPAA: R - Лицам до 17 лет обязательно присутствие взрослого-Качество: BDRip-AVC 60fps
Формат: MKV
Видео: AVC, 1024x576 (16:9), 5000 kbps, 59,940 fps, 0,141 bpp
Аудио №1: русский / AC3 / 5.1 / 48 kHz / 640 kbps / 16 bit |Jonathan|
Аудио №2: русский / AC3 / 5.1 / 48 kHz / 640 kbps / 16 bit ||ssvss
Навигация по главам: есть- -

ОтчетМедиаИнфо

General
Unique ID : 175627052570649903434901967664495720403 (0x84208A3AC140FB1B85653762A80FF7D3)
Format : Matroska
Format version : Version 4 / Version 2
File size : 3.30 GiB
Duration : 1h 15mn
Overall bit rate : 6 282 Kbps
Movie name : Tiberiumsun69
Encoded date : UTC 2015-11-08 04:13:30
Writing application : mkvmerge v8.3.0 ('Over the Horizon') 64bit
Writing library : libebml v1.3.1 + libmatroska v1.4.2
Attachment : Yes
Video
ID : 1
Format : AVC
Format/Info : Advanced Video Codec
Format profile : High@L4.1
Format settings, CABAC : Yes
Format settings, ReFrames : 4 frames
Codec ID : V_MPEG4/ISO/AVC
Duration : 1h 15mn
Bit rate : 5 000 Kbps
Width : 1 024 pixels
Height : 576 pixels
Display aspect ratio : 16:9
Frame rate : 59.940 fps
Color space : YUV
Chroma subsampling : 4:2:0
Bit depth : 8 bits
Scan type : Progressive
Bits/(Pixel*Frame) : 0.141
Stream size : 2.56 GiB (78%)
Title : Tiberiumsun69
Writing library : x264 core 146 r2538 121396c
Encoding settings : cabac=1 / ref=3 / deblock=1:0:0 / analyse=0x3:0x113 / me=umh / subme=9 / psy=1 / psy_rd=1.00:0.10 / mixed_ref=1 / me_range=32 / chroma_me=1 / trellis=2 / 8x8dct=1 / cqm=0 / deadzone=21,11 / fast_pskip=0 / chroma_qp_offset=-3 / threads=12 / lookahead_threads=3 / sliced_threads=0 / nr=0 / decimate=1 / interlaced=0 / bluray_compat=0 / constrained_intra=0 / bframes=16 / b_pyramid=2 / b_adapt=2 / b_bias=0 / direct=3 / weightb=1 / open_gop=0 / weightp=2 / keyint=600 / keyint_min=59 / scenecut=40 / intra_refresh=0 / rc_lookahead=40 / rc=2pass / mbtree=0 / bitrate=5000 / ratetol=1.0 / qcomp=0.60 / qpmin=0 / qpmax=69 / qpstep=4 / cplxblur=20.0 / qblur=0.5 / vbv_maxrate=14000 / vbv_bufsize=14000 / nal_hrd=none / filler=0 / ip_ratio=1.40 / pb_ratio=1.30 / aq=1:1.00
Language : English
Default : Yes
Forced : No
Audio #1
ID : 2
Format : AC-3
Format/Info : Audio Coding 3
Mode extension : CM (complete main)
Codec ID : A_AC3
Duration : 1h 15mn
Bit rate mode : Constant
Bit rate : 640 Kbps
Channel(s) : 6 channels
Channel positions : Front: L C R, Side: L R, LFE
Sampling rate : 48.0 KHz
Bit depth : 16 bits
Compression mode : Lossy
Stream size : 344 MiB (10%)
Title : Одноголосый, закадровый Jonathan
Language : Russian
Default : Yes
Forced : No
Audio #2
ID : 3
Format : AC-3
Format/Info : Audio Coding 3
Mode extension : CM (complete main)
Codec ID : A_AC3
Duration : 1h 15mn
Bit rate mode : Constant
Bit rate : 640 Kbps
Channel(s) : 6 channels
Channel positions : Front: L C R, Side: L R, LFE
Sampling rate : 48.0 KHz
Bit depth : 16 bits
Compression mode : Lossy
Stream size : 344 MiB (10%)
Title : Одноголосый, закадровый SSVSS
Language : Russian
Default : No
Forced : No
Text #1
ID : 4
Format : UTF-8
Codec ID : S_TEXT/UTF8
Codec ID/Info : UTF-8 Plain Text
Title : Полные
Language : Russian
Default : No
Forced : No
Text #2
ID : 5
Format : UTF-8
Codec ID : S_TEXT/UTF8
Codec ID/Info : UTF-8 Plain Text
Title : Полные
Language : English
Default : No
Forced : No
Menu
00:00:00.000 : en:
00:04:31.145 : en:
00:12:33.002 : en:
00:19:03.142 : en:
00:24:39.060 : en:
00:32:15.475 : en:
00:44:25.245 : en:
00:49:26.545 : en:
00:51:30.462 : en:
00:55:53.892 : en:
01:02:37.336 : en:
01:10:12.374 : en:

Скриншоты



Последний раз редактировалось: Kryl (2015-11-21 21:55), всего редактировалось 1 раз

[Цитировать]
HANNIBAL_68

Спасибо посмотрим

[Цитировать]
ENIGMA

Огромное Спасибо Овации
 
Показать сообщения:    

Текущее время: 11-Дек 07:07

Часовой пояс: UTC + 3


Вы не можете начинать темы
Вы не можете отвечать на сообщения
Вы не можете редактировать свои сообщения
Вы не можете удалять свои сообщения
Вы не можете голосовать в опросах
Вы не можете прикреплять файлы к сообщениям
Вы не можете скачивать файлы