[Цитировать]
envy

Информация о фильме
Русское название: Вооружены и опасны
Оригинальное название: Armed and Dangerous
Год выхода: 1986
Жанр: боевик, комедия, криминал
Режиссер: Марк Л. Лестер
Выпущено: США
Продолжительность: 01:27:32
Перевод: Профессиональный (Многоголосый, закадровый), Авторский (Одноголосый, закадровый)
В ролях: Джон Кэнди, Юджин Леви, Роберт Лоджа, Кеннет МакМиллан, Мег Райан, Брайон Джеймс, Джонатан Бэнкс, Дон Страуд, Ларри Хэнкин, Стив Рейлсбэк-Сюжет фильма
Бывший полицейский Фрэнк Дули, уволенный по ошибке за взяточничество, находит друга в лице некомпетентного и бездарного адвоката, которого тоже вышвырнули с работы. Фрэнк и его приятель устраиваются вместе на работу в охранную фирму. Но и на новом месте работы они не добиваются успеха и наживают врагов. Бывшего полицейского и бывшего адвоката начинают ненавидеть все сотрудники фирмы. Два неудачника должны совершить нечто такое, что заставит окружающих изменить мнение об их способностях…-Файл
Качество: BDRip 720p (исходник Blu-ray Disc Remux)
Видео: 1280x694, ~12600 Кбит/сек, 59.940 кадр/сек, AVC, x264, High@L4.1, 1.85:1, 0.263 Бит/[Пиксели*Кадры]
Аудио 1: AC-3, 192 Кбит/сек, 2 канала(ов), 48,0 КГц - Многоголосый закадровый, Первый канал / Русский
Аудио 2: AC-3, 192 Кбит/сек, 2 канала(ов), 48,0 КГц - Многоголосый закадровый, СТС / Русский
Аудио 3: AC-3, 192 Кбит/сек, 2 канала(ов), 48,0 КГц - Одноголосый закадровый, Марченко / Русский
Аудио 4: AC-3, 192 Кбит/сек, 2 канала(ов), 48,0 КГц - Одноголосый закадровый, Гаврилов / Русский
Аудио 5: AC-3, 448 Кбит/сек, 2 канала(ов), 48,0 КГц - Оригинал / Английский
Субтитры: Английские | Полные
Форсированные субтитры: Нет
Чаптеры (Главы): Нет-
Автор Рипа: Сообщество: -

Скриншоты

MediaInfo

Format : Matroska
Format version : Version 2
File size : 8.59 GiB
Duration : 1h 27mn
Overall bit rate : 14.0 Mbps
Movie name : Вооружены и опасны.(1986).BDRip.720p.[envy].[60fps]
Encoded date : UTC 2015-06-03 12:16:56
Writing application : mkvmerge v5.8.0 ('No Sleep / Pillow') built on Sep 2 2012 15:37:04
Writing library : libebml v1.2.3 + libmatroska v1.3.0
Video
ID : 1
Format : AVC
Format/Info : Advanced Video Codec
Format profile : High@L4.1
Format settings, CABAC : Yes
Format settings, ReFrames : 9 frames
Codec ID : V_MPEG4/ISO/AVC
Duration : 1h 27mn
Bit rate : 12.6 Mbps
Width : 1 280 pixels
Height : 694 pixels
Display aspect ratio : 1.85:1
Frame rate mode : Constant
Frame rate : 59.880 fps
Original frame rate : 59.940 fps
Color space : YUV
Chroma subsampling : 4:2:0
Bit depth : 8 bits
Scan type : Progressive
Bits/(Pixel*Frame) : 0.236
Stream size : 7.67 GiB (89%)
Title : Вооружены и опасны.(1986).BDRip.720p.[envy].[60fps]
Writing library : x264 core 130 r2273 b3065e6
Encoding settings : cabac=1 / ref=9 / deblock=1:0:0 / analyse=0x3:0x113 / me=umh / subme=10 / psy=1 / psy_rd=1.00:0.00 / mixed_ref=1 / me_range=24 / chroma_me=1 / trellis=2 / 8x8dct=1 / cqm=0 / deadzone=21,11 / fast_pskip=0 / chroma_qp_offset=-2 / threads=12 / lookahead_threads=1 / sliced_threads=0 / nr=0 / decimate=1 / interlaced=0 / bluray_compat=0 / constrained_intra=0 / bframes=5 / b_pyramid=2 / b_adapt=2 / b_bias=0 / direct=3 / weightb=1 / open_gop=0 / weightp=2 / keyint=250 / keyint_min=25 / scenecut=40 / intra_refresh=0 / rc=crf / mbtree=0 / crf=17.0 / qcomp=0.60 / qpmin=0 / qpmax=69 / qpstep=4 / ip_ratio=1.40 / pb_ratio=1.30 / aq=1:0.70
Language : English
Default : Yes
Forced : No
Audio #1
ID : 2
Format : AC-3
Format/Info : Audio Coding 3
Mode extension : CM (complete main)
Format settings, Endianness : Big
Codec ID : A_AC3
Duration : 1h 27mn
Bit rate mode : Constant
Bit rate : 192 Kbps
Channel(s) : 2 channels
Channel positions : Front: L R
Sampling rate : 48.0 KHz
Bit depth : 16 bits
Compression mode : Lossy
Stream size : 120 MiB (1%)
Title : MVO OPT
Language : Russian
Default : Yes
Forced : No
Audio #2
ID : 3
Format : AC-3
Format/Info : Audio Coding 3
Mode extension : CM (complete main)
Format settings, Endianness : Big
Codec ID : A_AC3
Duration : 1h 27mn
Bit rate mode : Constant
Bit rate : 192 Kbps
Channel(s) : 2 channels
Channel positions : Front: L R
Sampling rate : 48.0 KHz
Bit depth : 16 bits
Compression mode : Lossy
Delay relative to video : 28ms
Stream size : 120 MiB (1%)
Title : MVO CTC
Language : Russian
Default : No
Forced : No
Audio #3
ID : 4
Format : AC-3
Format/Info : Audio Coding 3
Mode extension : CM (complete main)
Format settings, Endianness : Big
Codec ID : A_AC3
Duration : 1h 27mn
Bit rate mode : Constant
Bit rate : 192 Kbps
Channel(s) : 2 channels
Channel positions : Front: L R
Sampling rate : 48.0 KHz
Bit depth : 16 bits
Compression mode : Lossy
Stream size : 120 MiB (1%)
Title : Marchenko
Language : Russian
Default : No
Forced : No
Audio #4
ID : 5
Format : AC-3
Format/Info : Audio Coding 3
Mode extension : CM (complete main)
Format settings, Endianness : Big
Codec ID : A_AC3
Duration : 1h 27mn
Bit rate mode : Constant
Bit rate : 192 Kbps
Channel(s) : 2 channels
Channel positions : Front: L R
Sampling rate : 48.0 KHz
Bit depth : 16 bits
Compression mode : Lossy
Stream size : 120 MiB (1%)
Title : Gavrilov
Language : Russian
Default : No
Forced : No
Audio #5
ID : 6
Format : AC-3
Format/Info : Audio Coding 3
Mode extension : CM (complete main)
Format settings, Endianness : Big
Codec ID : A_AC3
Duration : 1h 27mn
Bit rate mode : Constant
Bit rate : 448 Kbps
Channel(s) : 2 channels
Channel positions : Front: L R
Sampling rate : 48.0 KHz
Bit depth : 16 bits
Compression mode : Lossy
Stream size : 281 MiB (3%)
Title : Eng
Language : English
Default : No
Forced : No
Text
ID : 7
Format : UTF-8
Codec ID : S_TEXT/UTF8
Codec ID/Info : UTF-8 Plain Text
Title : Eng full
Language : English
Default : No
Forced : No

[Цитировать]
Kryl

envy, Вы жадничаете ))) скринов маловато )

[Цитировать]
envy

KRYL, так а зачем их много?
Из за переизбытка скриншотов фотохостинги их удоляют.. некоторые...
Я на огнепике уже очень давно заливаю картинки и ниразу ничего не удалили...!!! )))
Да и скриншоты для оценки картинки, наглядно.
А семпл для проверки этой картинки)))
Или мало скриншотов заливаю?
Ведь чем больше всяких картинок на странице она этим дольше грузится....
А картинки в png не мало весят)))
 
Показать сообщения:    

Текущее время: 27-Май 18:45

Часовой пояс: UTC + 3


Вы не можете начинать темы
Вы не можете отвечать на сообщения
Вы не можете редактировать свои сообщения
Вы не можете удалять свои сообщения
Вы не можете голосовать в опросах
Вы не можете прикреплять файлы к сообщениям
Вы не можете скачивать файлы